<?xml version="1.0" standalone="no"?>
<!DOCTYPE svg PUBLIC "-//W3C//DTD SVG 1.1//EN" "http://www.w3.org/Graphics/SVG/1.1/DTD/svg11.dtd" >
<svg xmlns="http://www.w3.org/2000/svg">
<metadata>Generated by IcoMoon</metadata>
<defs>
<font id="vac" horiz-adv-x="1024">
<font-face units-per-em="1024" ascent="960" descent="-64" />
<missing-glyph horiz-adv-x="1024" />
<glyph unicode="&#x20;" horiz-adv-x="512" d="" />
<glyph unicode="&#xe900;" glyph-name="access" d="M516.48 730.944c48.704-48.704 64.672-117.088 49.856-179.712l244.864-244.864c2.912-2.848 4.736-6.784 4.96-10.88l5.856-112.064c0.384-9.408-8.672-18.112-18.080-17.344l-141.568 11.712c-8.192 0.672-15.2 8.192-15.296 16.384l0.032 54.208-54.208-0.032c-8.672 0.032-16.544 7.904-16.576 16.576l0.032 54.208-54.208-0.032c-4.352-0.032-8.672 1.728-11.808 4.8l-85.856 85.856c-62.528-14.656-130.88 1.056-179.52 49.696-74.752 74.752-74.688 196.512 0.128 271.328 97.056 91.168 217.888 57.216 271.328 0.128v0zM492.864 707.328c-61.984 61.984-162.080 61.952-224.16-0.096s-62.112-162.144-0.128-224.16c42.624-42.624 103.488-55.712 157.408-39.744 5.696 1.632 12.224-0.032 16.416-4.224l86.592-86.592 64.16 0.032c8.672-0.032 16.544-7.904 16.576-16.576l-0.032-54.208 54.208 0.032c8.672-0.032 16.544-7.904 16.576-16.576l-0.032-55.68 107.264-8.8-4.576 86.464-246.336 246.336c-4.16 4.288-5.792 10.88-4.032 16.576 16.672 68.64-4.608 120.384-39.936 157.216v0zM386.688 683.712c25.92-25.92 25.888-68.448-0.032-94.368s-68.48-25.952-94.368-0.032c-25.92 25.92-25.888 68.448 0.032 94.368s68.48 25.952 94.368 0.032zM363.072 660.096c-13.184 13.184-34.016 13.152-47.2-0.032s-13.184-34.016-0.032-47.2c13.184-13.184 34.016-13.152 47.2 0.032s13.184 34.016 0.032 47.2z" />
<glyph unicode="&#xe901;" glyph-name="adjust-strap" d="M512 228.8v32c177.632 0 320 60.8 320 127.456v187.744h32v-187.744c0-91.776-158.496-159.456-352-159.456zM544 316.288c-8.832 0-16 7.168-16 16s7.168 16 16 16c44.704 0 60.736 1.184 107.744 7.296 8.768 1.152 16.8-5.024 17.92-13.792s-5.024-16.8-13.792-17.92c-48.32-6.304-65.696-7.552-111.872-7.552zM512 416v32c177.632 0 320 61.024 320 128h32c0-92.064-158.496-160-352-160zM512 736v-32c177.824 0 320-67.712 320-144h32c0 100.448-158.688 176-352 176zM512 557.856v-32c99.264 0 190.976-21.12 251.776-56.384l16.064 27.68c-66.080 38.336-163.264 60.704-267.84 60.704zM544 228.864v32c-177.632 0-320 61.024-320 128v187.136h-32v-187.136c0-92.064 158.496-160 352-160zM496 336c0-17.664-14.336-32-32-32s-32 14.336-32 32c0 17.664 14.336 32 32 32s32-14.336 32-32zM416 352c0-17.664-14.336-32-32-32s-32 14.336-32 32c0 17.664 14.336 32 32 32s32-14.336 32-32zM544 416v32c-177.632 0-320 61.024-320 128h-32c0-92.064 158.496-160 352-160zM544 736v-32c-177.824 0-320-67.712-320-144h-32c0 100.448 158.688 176 352 176zM522.464 557.888v-32c-98.592 0-189.728-20.832-250.56-55.68l-15.904 27.776c66.080 37.856 162.656 59.904 266.464 59.904zM544 448h32v-208h-32v208zM214.4 163.136l13.792 28.864c9.536-4.576 19.072-8.928 28.608-13.056l-12.768-29.344c-9.856 4.288-19.744 8.8-29.632 13.536zM305.088 125.792l10.432 30.24c9.952-3.424 19.904-6.624 29.824-9.6l-9.152-30.656c-10.336 3.104-20.704 6.432-31.104 10.016zM400.736 99.648l6.272 31.36c10.272-2.048 20.544-3.872 30.752-5.408l-4.768-31.648c-10.752 1.632-21.504 3.52-32.288 5.664zM497.824 87.52l1.568 31.968c9.568-0.48 19.136-0.704 28.64-0.704 1.536 0 1.536 0 2.784 0l0.128-32c-1.312 0-1.312 0-2.912 0-10.048 0-20.128 0.256-30.208 0.736zM596.384 90.144l-3.168 31.84c10.336 1.024 20.672 2.304 31.008 3.84l4.672-31.648c-10.816-1.6-21.664-2.944-32.512-4zM693.504 106.848l-7.616 31.072c10.080 2.464 20.16 5.184 30.208 8.128l9.024-30.72c-10.528-3.072-21.056-5.92-31.584-8.512zM788.032 136.896l-11.68 29.792c9.664 3.776 19.328 7.808 28.96 12.032l12.864-29.28c-10.048-4.416-20.096-8.576-30.144-12.544zM96 242.016c37.152-62.656 55.712-93.984 55.712-93.984s0 19.36 0 58.112l47.872 21.184-103.616 14.688zM929.6 242.016c-37.152-62.656-55.712-93.984-55.712-93.984s0 19.36 0 58.112l-47.872 21.184 103.616 14.688z" />
<glyph unicode="&#xe902;" glyph-name="alert" d="M512 704c23.552 0 42.656-19.104 42.656-42.656v-256c0-23.552-19.104-42.656-42.656-42.656s-42.656 19.104-42.656 42.656v256c0 23.552 19.104 42.656 42.656 42.656zM512 277.344c23.552 0 42.656-19.104 42.656-42.656s-19.104-42.656-42.656-42.656c-23.552 0-42.656 19.104-42.656 42.656s19.104 42.656 42.656 42.656zM512 64c212.064 0 384 171.936 384 384s-171.936 384-384 384c-212.064 0-384-171.936-384-384s171.936-384 384-384zM512 21.344c-235.648 0-426.656 191.040-426.656 426.656s191.040 426.656 426.656 426.656c235.648 0 426.656-191.040 426.656-426.656s-191.040-426.656-426.656-426.656z" />
<glyph unicode="&#xe903;" glyph-name="book-appointment" d="M736 97.76c123.712 0 224 100.288 224 224s-100.288 224-224 224c-123.712 0-224-100.288-224-224s100.288-224 224-224zM736 129.76c-106.048 0-192 85.952-192 192s85.952 192 192 192c106.048 0 192-85.952 192-192s-85.952-192-192-192zM662.688 144h-406.688c-44.192 0-80 35.808-80 80v416c0 44.192 35.808 80 80 80h544c44.192 0 80-35.808 80-80v-181.824h32v181.824c0 61.856-50.144 112-112 112h-544c-61.856 0-112-50.144-112-112v-416c0-61.856 50.144-112 112-112h406.688v32zM702.592 286.464l121.792 115.296 23.616-22.368-145.408-137.632-78.592 74.4 23.616 22.368zM336 800c8.832 0 16-7.168 16-16v-160c0-8.832-7.168-16-16-16s-16 7.168-16 16v160c0 8.832 7.168 16 16 16zM720 800c8.832 0 16-7.168 16-16v-160c0-8.832-7.168-16-16-16s-16 7.168-16 16v160c0 8.832 7.168 16 16 16zM400 525.12c0-17.664-14.336-32-32-32s-32 14.336-32 32c0 17.664 14.336 32 32 32s32-14.336 32-32zM400 432c0-17.664-14.336-32-32-32s-32 14.336-32 32c0 17.664 14.336 32 32 32s32-14.336 32-32zM304 432c0-17.664-14.336-32-32-32s-32 14.336-32 32c0 17.664 14.336 32 32 32s32-14.336 32-32zM304 336c0-17.664-14.336-32-32-32s-32 14.336-32 32c0 17.664 14.336 32 32 32s32-14.336 32-32zM304 240c0-17.664-14.336-32-32-32s-32 14.336-32 32c0 17.664 14.336 32 32 32s32-14.336 32-32zM400 334.528c0-17.664-14.336-32-32-32s-32 14.336-32 32c0 17.664 14.336 32 32 32s32-14.336 32-32zM400 240c0-17.664-14.336-32-32-32s-32 14.336-32 32c0 17.664 14.336 32 32 32s32-14.336 32-32zM496 527.104c0-17.664-14.336-32-32-32s-32 14.336-32 32c0 17.664 14.336 32 32 32s32-14.336 32-32zM592 524.832c0-17.664-14.336-32-32-32s-32 14.336-32 32c0 17.664 14.336 32 32 32s32-14.336 32-32zM496 430.528c0-17.664-14.336-32-32-32s-32 14.336-32 32c0 17.664 14.336 32 32 32s32-14.336 32-32zM496 334.528c0-17.664-14.336-32-32-32s-32 14.336-32 32c0 17.664 14.336 32 32 32s32-14.336 32-32zM496 240c0-17.664-14.336-32-32-32s-32 14.336-32 32c0 17.664 14.336 32 32 32s32-14.336 32-32zM560 336c0-17.664-14.336-32-32-32s-32 14.336-32 32c0 17.664 14.336 32 32 32s32-14.336 32-32z" />
<glyph unicode="&#xe904;" glyph-name="boutique-address" d="M464 48v242.944c-18.144 13.568-30.24 33.344-31.808 55.904l-0.192 5.12c0 2.144 0.416 4.32 1.312 6.368l1.376 2.528 68.96 103.104h336.8l68.832-103.104c1.824-2.752 2.688-5.824 2.688-8.896v0c0-24.672-12.48-46.432-31.968-61.024l-0.032-242.976h-416zM746.656 306.528l-0.352-0.512c-16.48-20.704-43.776-34.048-74.272-34.048-30.752 0-58.24 13.568-74.688 34.528-16.416-20.992-43.904-34.528-74.656-34.528-9.248 0-18.208 1.216-26.656 3.52v-195.52h96v128h160v-128h96l0.032 195.52c-8.448-2.304-17.44-3.52-26.688-3.52-30.752 0-58.24 13.568-74.688 34.528zM720 176h-96v-96h96v96zM368 880c149.312 0 256-99.904 256-256 0-30.592-6.528-63.392-19.456-98.336-3.072-8.288-12.288-12.512-20.544-9.44s-12.512 12.288-9.44 20.576c11.68 31.552 17.472 60.64 17.472 87.2 0 137.92-91.904 224-224 224s-224-86.080-224-224c0-93.12 70.848-215.648 213.504-366.048l9.92-10.368 33.664 38.368c5.792 6.688 15.872 7.424 22.56 1.632s7.424-15.872 1.632-22.56l-45.312-51.616-11.392-12.896-12.032 12.288c-162.688 166.304-244.576 302.784-244.576 411.2 0 156.096 106.688 256 256 256zM823.36 432h-302.656l-56.448-84.448c1.536-13.28 9.792-25.216 22.144-33.248 0.608-0.192 1.152-0.48 1.696-0.8l2.080-1.44c9.248-5.088 20.416-8.096 32.512-8.096 31.168 0 55.936 19.808 58.464 43.936l0.224 4.064h32c0-25.92 25.76-48 58.656-48 31.168 0 55.936 19.808 58.464 43.936l0.224 4.064h32c0-25.92 25.76-48 58.656-48 31.008 0 55.68 19.616 58.4 43.552l-56.384 84.448zM368 736c61.856 0 112-50.144 112-112s-50.144-112-112-112c-61.856 0-112 50.144-112 112s50.144 112 112 112zM368 704c-44.192 0-80-35.808-80-80s35.808-80 80-80c44.192 0 80 35.808 80 80s-35.808 80-80 80z" />
<glyph unicode="&#xe905;" glyph-name="brand-logo" horiz-adv-x="3680" d="M1799.136 592l-54.976-125.536c-0.384-1.024-0.608-2.112-0.608-3.296 0-2.528 1.024-4.8 2.688-6.464s3.936-2.688 6.464-2.688c1.152 0 2.272 0.224 3.264 0.608l125.536 54.976-24.704-68.64 24.704-68.64-125.536 54.976c-0.992 0.384-2.112 0.608-3.264 0.608-2.56 0-4.832-1.024-6.464-2.688s-2.688-3.936-2.688-6.464c0-1.152 0.224-2.24 0.608-3.264l54.976-125.536-68.64 24.704-68.64-24.704 54.976 125.536c0.416 1.024 0.608 2.144 0.608 3.264 0 2.528-1.024 4.832-2.688 6.464s-3.968 2.688-6.464 2.688c-1.184 0-2.24-0.224-3.264-0.608l-125.536-54.976 24.704 68.64-24.704 68.64 125.536-54.976c1.024-0.384 2.080-0.608 3.264-0.608 2.016 0 3.872 0.64 5.408 1.76l1.056 0.928c1.664 1.664 2.688 3.936 2.688 6.464 0 1.152-0.224 2.272-0.608 3.296l-54.976 125.536 68.64-24.704 68.64 24.704zM442.592 571.552c13.344 0 32.064-2.112 50.272-19.84 26.912-24.64 28.192-57.344 28.48-70.176h-36.672c-1.024 14.24-9.76 50.016-47.168 46.208-17.44-1.728-31.040-18.752-37.184-40.288-2.56-9.024-5.152-25.728-5.92-43.808-0.512-18.048 0.768-37.536 5.92-53.152 6.144-18.4 14.624-29.536 24.096-35.456 4.864-2.784 9.76-4.16 15.136-4.16 5.12-0.352 10.752 0.704 16.16 2.784 26.656 10.080 27.424 35.808 28.96 46.912h36.672c-0.256-25.728-11.040-54.912-25.12-69.856-11.008-11.808-32.064-23.616-55.136-24.672-41.536-1.728-70.528 34.4-80.512 87.936-2.048 11.808-3.584 27.776-3.584 44.48 0 17.024 1.28 34.4 4.352 48.64 10.528 47.264 32.832 84.448 81.28 84.448zM2070.208 571.552c13.312 0 32.032-2.112 50.24-19.84 26.944-24.64 28.224-57.344 28.48-70.176h-36.672c-0.992 14.24-9.728 50.016-47.168 46.208-17.472-1.728-31.008-18.752-37.184-40.288-2.56-9.024-5.12-25.728-5.888-43.808-0.512-18.048 0.768-37.536 5.888-53.152 6.144-18.4 14.592-29.536 24.096-35.456 4.864-2.784 9.728-4.16 15.104-4.16 5.12-0.352 10.784 0.704 16.16 2.784 26.656 10.080 27.424 35.808 28.96 46.912h36.672c-0.256-25.728-11.040-54.912-25.152-69.856-11.008-11.808-32.032-23.616-55.104-24.672-41.536-1.728-70.528 34.4-80.512 87.936-2.048 11.808-3.616 27.776-3.616 44.48 0 17.024 1.28 34.4 4.352 48.64 10.528 47.264 32.832 84.448 81.312 84.448zM2265.728 571.552c23.84 0 46.656-9.728 62.304-31.616 17.44-24.672 27.68-62.912 27.68-101.12s-10.24-76.448-27.68-101.12c-15.648-21.888-38.464-31.648-62.304-31.648s-46.688 9.76-62.304 31.648c-17.44 24.672-27.712 62.88-27.712 101.12s10.272 76.448 27.712 101.12c15.616 21.888 38.432 31.616 62.304 31.616zM1200.64 571.552c23.84 0 46.656-9.728 62.304-31.616 17.44-24.672 27.712-62.912 27.712-101.12s-10.272-76.448-27.712-101.12c-15.648-21.888-38.464-31.648-62.304-31.648s-46.688 9.76-62.304 31.648c-17.44 24.672-27.712 62.88-27.712 101.12s10.272 76.448 27.712 101.12c15.616 21.888 38.464 31.616 62.304 31.616zM2709.664 539.232c9.696-17.024 12.288-40.672 10.752-48.992h-36.16c0.512 20.512-12.064 39.296-38.496 39.968-18.688 0.352-32.576-8.32-33.824-29.184-1.024-17.344 3.328-20.832 11.808-25.344 4.384-6.24 39.744-13.888 46.912-15.648 10.24-2.432 32.32-8.672 44.128-25.024 21.504-30.56 11.52-90.688-11.776-111.2-15.904-13.92-37.696-17.376-58.464-17.728-9.472-0.32-32.064 4.192-45.888 17.728-16.672 16.352-24.896 41.344-26.176 65.344h37.408c0-6.592 1.536-17.024 7.968-26.080 8.448-11.808 22.304-15.648 35.136-14.944 12.832 0.352 24.864 5.568 29.728 11.808 8.256 10.4 10.016 30.24 0.8 42.752-12.32 17.344-49.248 17.344-73.344 28.48-20.256 9.376-36.928 29.184-33.856 70.208 3.072 40.288 24.608 70.208 70.24 70.208 10.016 0 44.896-1.056 63.104-32.32zM269.632 567.392l64.096-253.344h-39.232l-12.832 50.752h-69.248l-13.056-50.752h-39.232l65.12 253.344h44.352zM885.664 567.392v-43.456h-96.896v-57.696h89.472v-43.456h-89.472v-65.312h101.28v-43.424h-139.744v253.344h135.392zM3131.552 567.392l75.648-174.112v174.112h38.432v-253.344h-37.92l-75.648 176.512v-176.512h-38.464v253.344h37.952zM1032.544 567.392c18.72-1.056 37.664-12.864 43.072-40.32 2.56-11.104 6.4-29.184 1.792-51.072s-12.832-29.888-25.376-39.936c6.4-5.92 18.72-12.16 20.768-35.104 1.024-10.432 1.536-43.808 1.792-56.672 0-14.24 3.072-17.376 7.168-20.832v-9.376h-41.28c-3.072 7.648-4.608 15.296-5.12 23.616-0.512 12.512-0.512 32.672 0 51.072-0.512 17.024-9.728 25.376-23.072 25.376h-45.12v-100.064h-38.464v253.344h103.872zM3565.856 567.392l75.648-174.112v174.112h38.496v-253.344h-37.952l-75.68 176.512v-176.512h-38.464v253.344h37.952zM2895.744 567.392v-43.456h-54.592v-209.888h-38.496v209.888h-56.64v43.456h149.728zM2427.488 567.392l75.616-174.112v174.112h38.496v-253.344h-37.952l-75.648 176.512v-176.512h-38.464v253.344h37.984zM3421.696 567.392v-43.456h-54.592v-209.888h-38.496v209.888h-56.64v43.456h149.728zM3486.752 567.392v-253.344h-38.432v253.344h38.432zM1362.368 567.392l75.648-174.112v174.112h38.464v-253.344h-37.92l-75.648 176.512v-176.512h-38.464v253.344h37.952zM38.72 567.392l41.28-191.136 41.024 191.136h38.72l-63.328-253.344h-33.088l-63.328 253.344h38.72zM3000.16 567.392l64.064-253.344h-39.232l-12.8 50.752h-69.248l-13.056-50.752h-40.16l66.016 253.344h44.384zM593.76 567.392v-95.232h74.112v95.232h38.464v-253.344h-38.464v114.656h-74.112v-114.656h-38.464v253.344h38.464zM1200.64 526.016c-12.32 0-24.608-4.864-34.336-17.024-12.32-15.296-18.464-42.752-18.72-70.208 0.256-27.456 6.4-54.912 18.72-70.176 9.728-12.192 22.048-17.024 34.336-17.024s24.608 4.832 34.368 17.024c12.32 15.296 18.464 42.72 18.72 70.176-0.256 27.456-6.4 54.912-18.72 70.208-9.76 12.16-22.048 17.024-34.368 17.024zM2265.728 526.016c-12.32 0-24.608-4.864-34.368-17.024-12.288-15.296-18.464-42.752-18.72-70.208 0.256-27.456 6.4-54.912 18.72-70.176 9.76-12.192 22.080-17.024 34.368-17.024s24.608 4.832 34.336 17.024c12.32 15.296 18.496 42.72 18.72 70.176-0.224 27.456-6.368 54.912-18.72 70.208-9.728 12.16-22.048 17.024-34.336 17.024zM247.584 506.56l-23.072-98.336h47.968l-24.864 98.336zM2978.112 506.56l-23.104-98.336h47.968l-24.864 98.336zM1019.2 523.936h-52.064v-66.368h52.544c8.96 0 25.12 12.864 22.816 37.888 0 18.080-6.144 28.48-23.328 28.48z" />
<glyph unicode="&#xe906;" glyph-name="camera" d="M879.072 687.776h-121.312l-87.264 86.528c-9.664 9.6-22.848 15.008-36.608 15.008h-229.12c-13.76 0-26.944-5.408-36.608-15.008l-87.264-86.528h-135.936c-56.576 0-102.272-45.312-102.272-101.056v-328.96c0-59.808 49.024-108.416 109.696-108.416h719.264c60.672 0 109.696 48.608 109.696 108.416v328.96c0 55.744-45.696 101.056-102.272 101.056zM775.296 730.464h103.744c80.032 0 144.928-64.352 144.928-143.744v-328.96c0-83.456-68.224-151.104-152.352-151.104h-719.264c-84.16 0-152.352 67.648-152.352 151.104v328.96c0 79.392 64.896 143.744 144.928 143.744h118.368l74.784 74.176c17.664 17.536 41.664 27.392 66.656 27.392h229.12c24.992 0 48.992-9.856 66.656-27.392l74.784-74.176zM512 576c-71.072 0-128-56.928-128-128 0-71.68 57.856-128.864 129.664-128 68.544 0.832 125.504 57.792 126.336 126.336 0.864 71.776-56.288 129.664-128 129.664zM512 618.656c95.36 0 171.84-77.184 170.656-172.832-1.12-91.712-76.8-167.36-168.48-168.48-95.648-1.184-172.832 75.296-172.832 170.656 0 94.624 76.032 170.656 170.656 170.656z" />
<glyph unicode="&#xe907;" glyph-name="care-advices" d="M288 800c-35.36 0-64-28.64-64-64v-576c0-35.36 28.64-64 64-64h448c35.36 0 64 28.64 64 64v576c0 35.36-28.64 64-64 64h-448zM288 832h448c53.024 0 96-42.976 96-96v-576c0-53.024-42.976-96-96-96h-448c-53.024 0-96 42.976-96 96v576c0 53.024 42.976 96 96 96zM352 608h320v-32h-320v32zM352 512h320v-32h-320v32zM352 416h320v-32h-320v32zM352 320h224v-32h-224v32z" />
<glyph unicode="&#xe908;" glyph-name="check-circle" d="M512 64c212.064 0 384 171.936 384 384s-171.936 384-384 384c-212.064 0-384-171.936-384-384s171.936-384 384-384zM512 21.344c-235.648 0-426.656 191.040-426.656 426.656s191.040 426.656 426.656 426.656c235.648 0 426.656-191.040 426.656-426.656s-191.040-426.656-426.656-426.656zM469.344 365.28l233.376 233.344 45.216-45.216-278.624-278.656-150.624 150.656 45.216 45.216z" />
<glyph unicode="&#xe909;" glyph-name="chevron-down-bold" d="M512 337.664l311.168 311.168 60.32-60.32-371.488-371.488-371.488 371.488 60.32 60.32z" />
<glyph unicode="&#xe90a;" glyph-name="chevron-down" d="M838.24 633.76l30.208-30.208-356.448-356.384-356.448 356.384 30.208 30.208 326.24-326.272z" />
<glyph unicode="&#xe90b;" glyph-name="chevron-left-bold" d="M416.768 448l311.168-311.168-60.384-60.32-371.488 371.488 371.488 371.488 60.384-60.32z" />
<glyph unicode="&#xe90c;" glyph-name="chevron-left" d="M705.28 121.76l-30.176-30.208-356.384 356.448 356.384 356.448 30.176-30.208-326.24-326.24z" />
<glyph unicode="&#xe90d;" glyph-name="chevron-right-bold" d="M607.232 448l-311.168 311.168 60.384 60.32 371.488-371.488-371.488-371.488-60.384 60.32z" />
<glyph unicode="&#xe90e;" glyph-name="chevron-right" d="M318.72 774.24l30.176 30.208 356.384-356.448-356.384-356.448-30.176 30.208 326.24 326.24z" />
<glyph unicode="&#xe90f;" glyph-name="chevron-up-bold" d="M512 543.232l-311.168-311.168-60.32 60.384 371.488 371.488 371.488-371.488-60.32-60.384z" />
<glyph unicode="&#xe910;" glyph-name="chevron-up" d="M185.76 254.72l-30.208 30.176 356.448 356.384 356.448-356.384-30.208-30.176-326.24 326.24z" />
<glyph unicode="&#xe911;" glyph-name="circle" d="M512 960c-282.336 0-512-229.664-512-512s229.664-512 512-512 512 229.664 512 512-229.664 512-512 512z" />
<glyph unicode="&#xe912;" glyph-name="close-b" d="M768 631.456l-29.856 29.856-226.144-226.144-226.144 226.144-29.856-29.856 226.144-226.144-226.144-226.144 29.856-29.856 226.144 226.144 226.144-226.144 29.856 29.856-226.144 226.144z" />
<glyph unicode="&#xe913;" glyph-name="contact-us" horiz-adv-x="1120" d="M939.168 554.24c53.376 0 82.368-35.808 84.704-97.984l0.16-8.256v-234.656c0-68.192-53.28-123.904-120.48-127.776l-7.52-0.224h-42.72l0.032-106.656c0-15.84-16.416-25.728-30.112-19.456l-3.104 1.728-185.312 124.384h-100.16c-68.192 0-123.904 53.28-127.776 120.48l-0.224 7.52v21.472h42.656v-21.472c0-44.992 34.816-81.856 78.976-85.088l6.368-0.224h106.656c2.816 0 5.6-0.544 8.192-1.632l3.712-1.984 157.44-105.664 0.032 87.936c0 10.464 7.552 19.168 17.504 20.992l3.84 0.352h64c44.992 0 81.856 34.784 85.088 78.976l0.224 6.368v234.656c0 43.264-11.68 61.408-37.216 63.392l-4.96 0.192v42.656zM618.656 959.136c106.048 0 192-85.952 192-192v0-212.48c0-106.048-85.952-192-192-192v0l-183.904 0.032-185.92-165.312c-12.832-11.424-32.64-3.68-35.232 12.384v0l-0.288 3.552v149.376l-21.344-0.032c-103.008 0-187.072 81.088-191.776 182.976v0l-0.224 9.056v212.48c0 106.048 85.952 192 192 192v0zM618.656 916.48h-426.656c-82.464 0-149.344-66.88-149.344-149.344v0-212.48c0-82.496 66.848-149.344 149.344-149.344v0h42.656c11.776 0 21.344-9.536 21.344-21.344v0-123.136l156.48 139.072c2.944 2.592 6.496 4.32 10.304 5.024v0l3.872 0.352h192c82.496 0 149.344 66.848 149.344 149.344v0 212.48c0 82.464-66.88 149.344-149.344 149.344v0z" />
<glyph unicode="&#xe914;" glyph-name="customize-watch" d="M640 593.408v-34.848h-288v34.848zM640 465.408v-34.848h-288v34.848zM433.408 400h-34.848v96h34.848zM561.408 528h-34.848v96h34.848zM497.408 272h-34.848v96h34.848zM640 337.408v-34.848h-288v34.848zM488 112c-181.152 0-328 146.848-328 328s146.848 328 328 328c181.152 0 328-146.848 328-328s-146.848-328-328-328zM488 144c163.488 0 296 132.512 296 296s-132.512 296-296 296c-163.488 0-296-132.512-296-296s132.512-296 296-296zM336 182.208l-31.968 6.912 8.512-123.392c1.728-25.184 22.656-44.704 47.872-44.704h232.32c24.448 0 44.992 18.368 47.712 42.656l13.92 124.736-33.44-18.528-12.288-102.656c-0.896-8.096-7.744-14.24-15.904-14.24h-232.288c-8.416 0-15.392 6.496-15.968 14.912l-8.48 114.272zM832 480h32v-64h-32v64zM335.968 709.696l-31.936 2.208 8.512 123.392c1.728 25.184 22.656 44.704 47.872 44.704h232.32c24.448 0 44.992-18.368 47.712-42.656l13.92-124.736-31.808-3.552-13.92 124.736c-0.896 8.096-7.744 14.24-15.904 14.24h-232.288c-8.416 0-15.392-6.496-15.968-14.912l-8.512-123.392z" />
<glyph unicode="&#xe915;" glyph-name="document-empty" d="M656.8 96.832v-32h-32v32h32zM775.744 103.136l15.872-27.776c-11.68-6.688-24.896-10.304-38.624-10.496v0l-0.384 32c8.256 0.096 16.16 2.272 23.136 6.272v0zM720.8 96.832v-32h-32v32h32zM592.8 96.832v-32h-32v32h32zM528.8 96.832v-32h-32v32h32zM464.8 96.832v-32h-32v32h32zM250.176 102.208c6.752-3.488 14.272-5.344 22.048-5.344v0h0.576v-32l-7.008 0.256c-10.656 0.864-20.96 3.808-30.368 8.704v0zM336.8 96.832v-32h-32v32h32zM400.8 96.832v-32h-32v32h32zM224.256 142.944c0.32-8.224 2.72-16.064 6.912-22.976v0l-27.36-16.608c-7.008 11.52-11.008 24.64-11.52 38.336v0zM800 144.64l32-0.128c-0.064-13.728-3.584-26.976-10.144-38.72v0l-27.936 15.616c3.936 7.040 6.048 14.944 6.080 23.2v0zM224.224 206.304v-32h-32v32h32zM832 207.68v-32h-32v32h32zM401.408 320.064l5.376-0.224c10.4-0.928 18.784-4.704 25.152-11.296 7.424-7.68 11.136-17.216 11.136-28.608 0-11.264-3.712-20.736-11.136-28.416s-17.6-11.52-30.528-11.52v0h-33.984v-48h-22.464v128.064h56.448zM685.952 320.064v-19.776h-65.28v-33.024h63.936v-19.776h-63.936v-55.488h-22.464v128.064h87.744zM509.504 320.064l6.528-0.224c16.992-1.184 30.976-7.040 41.952-17.632 12.352-11.904 18.528-27.264 18.528-46.080 0-18.944-6.144-34.368-18.432-46.272s-28.416-17.856-48.384-17.856v0h-47.808v128.064h47.616zM509.696 300.288h-25.344v-88.512h25.152c13.44 0 24.128 4.224 32.064 12.672s11.904 19.008 11.904 31.68c0 12.8-3.872 23.36-11.616 31.68s-18.464 12.48-32.16 12.48v0zM224.224 270.304v-32h-32v32h32zM832 271.68v-32h-32v32h32zM398.336 300.288h-30.912v-40.512h30.912c6.4 0 11.616 1.856 15.648 5.568s6.048 8.576 6.048 14.592c0 6.144-2.016 11.072-6.048 14.784s-9.248 5.568-15.648 5.568v0zM224.224 334.304v-32h-32v32h32zM832 335.68v-32h-32v32h32zM736 832c53.024 0 96-42.976 96-96v-48h-32v48c0 35.36-28.64 64-64 64h-448c-35.36 0-64-28.64-64-64v-337.664l0.224-0.032v-32h-32v17.696h-0.224v352c0 53.024 42.976 96 96 96h448zM832 399.68v-32h-32v32h32zM832 463.68v-32h-32v32h32zM480 480v-32h-128v32h128zM832 527.68v-32h-32v32h32zM672 576v-32h-320v32h320zM832 591.68v-32h-32v32h32zM832 655.68v-32h-32v32h32zM672 672v-32h-320v32h320z" />
<glyph unicode="&#xe916;" glyph-name="document" d="M736 832c53.024 0 96-42.976 96-96v-576c0-53.024-42.976-96-96-96h-448c-53.024 0-96 42.976-96 96v576c0 53.024 42.976 96 96 96h448zM736 800h-448c-35.36 0-64-28.64-64-64v-576c0-35.36 28.64-64 64-64h448c35.36 0 64 28.64 64 64v576c0 35.36-28.64 64-64 64zM401.408 320.064l5.376-0.224c10.4-0.928 18.784-4.704 25.152-11.296 7.424-7.68 11.136-17.216 11.136-28.608 0-11.264-3.712-20.736-11.136-28.416s-17.6-11.52-30.528-11.52v0h-33.984v-48h-22.464v128.064h56.448zM509.504 320.064l6.528-0.224c16.992-1.184 30.976-7.040 41.952-17.632 12.352-11.904 18.528-27.264 18.528-46.080 0-18.944-6.144-34.368-18.432-46.272s-28.416-17.856-48.384-17.856v0h-47.808v128.064h47.616zM685.952 320.064v-19.776h-65.28v-33.024h63.936v-19.776h-63.936v-55.488h-22.464v128.064h87.744zM509.696 300.288h-25.344v-88.512h25.152c13.44 0 24.128 4.224 32.064 12.672s11.904 19.008 11.904 31.68c0 12.8-3.872 23.36-11.616 31.68s-18.464 12.48-32.16 12.48v0zM398.336 300.288h-30.912v-40.512h30.912c6.4 0 11.616 1.856 15.648 5.568s6.048 8.576 6.048 14.592c0 6.144-2.016 11.072-6.048 14.784s-9.248 5.568-15.648 5.568v0zM480 480v-32h-128v32h128zM672 576v-32h-320v32h320zM672 672v-32h-320v32h320z" />
<glyph unicode="&#xe917;" glyph-name="dot" d="M1024 448c0-282.784-229.216-512-512-512s-512 229.216-512 512c0 282.784 229.216 512 512 512s512-229.216 512-512z" />
<glyph unicode="&#xe918;" d="M1024 448c0-282.784-229.216-512-512-512s-512 229.216-512 512c0 282.784 229.216 512 512 512s512-229.216 512-512z" />
<glyph unicode="&#xe919;" d="M430.816 455.488l186.688 186.688-36.192 36.192-222.912-222.912 222.912-222.912 36.192 36.192z" />
<glyph unicode="&#xe91a;" d="M1024 448c0-282.784-229.216-512-512-512s-512 229.216-512 512c0 282.784 229.216 512 512 512s512-229.216 512-512z" />
<glyph unicode="&#xe91b;" d="M430.816 455.488l186.688 186.688-36.192 36.192-222.912-222.912 222.912-222.912 36.192 36.192z" />
<glyph unicode="&#xe91c;" d="M1024 448c0-282.784-229.216-512-512-512s-512 229.216-512 512c0 282.784 229.216 512 512 512s512-229.216 512-512z" />
<glyph unicode="&#xe91d;" d="M595.104 455.488l-186.688 186.688 36.192 36.192 222.912-222.912-222.912-222.912-36.192 36.192z" />
<glyph unicode="&#xe91e;" d="M1024 448c0-282.784-229.216-512-512-512s-512 229.216-512 512c0 282.784 229.216 512 512 512s512-229.216 512-512z" />
<glyph unicode="&#xe91f;" d="M594.752 448l-186.688 186.688 36.192 36.192 222.912-222.912-222.912-222.912-36.192 36.192z" />
<glyph unicode="&#xe920;" glyph-name="ecs-repair-active" d="M151.904 728.096c-23.456-23.456-23.456-61.472 0-84.928 0.896-0.896 1.824-1.76 2.784-2.624l168.8-148.64 77.312-103.232 90.496 90.496-102.752 77.824-149.024 168.416c-22.048 24.896-60.096 27.232-84.992 5.184-0.928-0.8-1.824-1.664-2.688-2.528zM349.088 511.104l-4.48 4.832-168.8 148.64c-0.448 0.384-0.864 0.8-1.312 1.216-10.944 10.944-10.944 28.736 0 39.68 0.416 0.416 0.832 0.8 1.248 1.184 11.68 10.336 29.504 9.248 39.808-2.432l149.024-168.416 4.64-4.288 73.472-55.648-38.432-38.432-55.168 73.696zM441.056 461.6l-22.624-22.624 332.8-332.8 36.384-22.016 8.672 8.672-22.432 35.968zM668.512 634.624l179.296 165.376 20.352-20.352-200.416-184.896-12.224 12.224-111.488 110.272 20.352 20.352 104.128-102.976z" />
<glyph unicode="&#xe921;" glyph-name="ecs-repair-inactive" d="M151.904 728.096c-23.456-23.456-23.456-61.472 0-84.928 0.896-0.896 1.824-1.76 2.784-2.624l168.8-148.64 77.312-103.232 90.496 90.496-102.752 77.824-149.024 168.416c-22.048 24.896-60.096 27.232-84.992 5.184-0.928-0.8-1.824-1.664-2.688-2.528zM349.088 511.104l-4.48 4.832-168.8 148.64c-0.448 0.384-0.864 0.8-1.312 1.216-10.944 10.944-10.944 28.736 0 39.68 0.416 0.416 0.832 0.8 1.248 1.184 11.68 10.336 29.504 9.248 39.808-2.432l149.024-168.416 4.64-4.288 73.472-55.648-38.432-38.432-55.168 73.696zM441.056 461.6l-22.624-22.624 332.8-332.8 36.384-22.016 8.672 8.672-22.432 35.968z" />
<glyph unicode="&#xe922;" glyph-name="ecs-repair-refused" d="M151.904 728.096c-23.456-23.456-23.456-61.472 0-84.928 0.896-0.896 1.824-1.76 2.784-2.624l168.8-148.64 77.312-103.232 90.496 90.496-102.752 77.824-149.024 168.416c-22.048 24.896-60.096 27.232-84.992 5.184-0.928-0.8-1.824-1.664-2.688-2.528zM349.088 511.104l-4.48 4.832-168.8 148.64c-0.448 0.384-0.864 0.8-1.312 1.216-10.944 10.944-10.944 28.736 0 39.68 0.416 0.416 0.832 0.8 1.248 1.184 11.68 10.336 29.504 9.248 39.808-2.432l149.024-168.416 4.64-4.288 73.472-55.648-38.432-38.432-55.168 73.696zM441.056 461.6l-22.624-22.624 332.8-332.8 36.384-22.016 8.672 8.672-22.432 35.968zM720 708.352l91.648 91.648 20.352-20.352-91.648-91.648 91.648-91.648-20.352-20.352-91.648 91.648-91.648-91.648-20.352 20.352 91.648 91.648-91.648 91.648 20.352 20.352 91.648-91.648z" />
<glyph unicode="&#xe923;" glyph-name="edit" d="M585.568 723.904l-359.808-361.344c-5.088-4.992-8.416-11.52-9.504-18.592l-23.84-168.832c-1.696-11.776 1.728-23.68 9.44-32.704s18.912-14.24 30.752-14.336c1.728-0.096 3.456-0.096 5.152 0l171.136 21.312c7.36 0.992 14.176 4.48 19.328 9.856l359.808 361.28c37.344 36.096 52.352 89.632 39.264 139.968s-52.256 89.696-102.4 102.848c-50.144 13.152-103.456-1.952-139.392-39.456zM400.48 187.296l-167.264-18.4 24.224 168.992 320.8 319.744 142.080-149.184-319.84-321.152zM793.376 617.472c0-32.128-24.672-58.144-41.632-75.008l-5.696-5.696-141.696 144.224 5.696 5.696c25.728 26.112 61.76 52.512 111.392 31.584s71.936-48.416 71.936-100.8z" />
<glyph unicode="&#xe924;" glyph-name="engrave" d="M512 128c-176.736 0-320 143.264-320 320s143.264 320 320 320c176.736 0 320-143.264 320-320s-143.264-320-320-320zM512 96c194.4 0 352 157.6 352 352s-157.6 352-352 352c-194.4 0-352-157.6-352-352s157.6-352 352-352zM491.008 320h-31.872l50.304 227.712h-81.024l6.144 28.416h194.304l-6.144-28.416h-81.408z" />
<glyph unicode="&#xe925;" glyph-name="envelope" d="M853.333 746.667c47.128 0 85.333-38.205 85.333-85.333v-426.667c0-47.128-38.205-85.333-85.333-85.333h-682.667c-47.128 0-85.333 38.205-85.333 85.333v426.667c0 47.128 38.205 85.333 85.333 85.333h682.667zM644.395 456.619l-36.943-33.124c-54.603-48.953-136.239-50.779-192.857-5.516l-6.671 5.658-30.921 27.777-223.797-255.688c3.888-1.746 8.084-2.927 12.485-3.438l4.976-0.287h682.667c5.462 0 10.684 1.026 15.485 2.897l-224.423 261.722zM892.275 678.794l-216.094-193.674 219.468-255.948c0.022 0.173 0.043 0.346 0.064 0.519l0.287 4.976v426.667c0 6.221-1.331 12.131-3.725 17.461zM128.287 666.309l-0.287-4.976v-426.667l0.128-2.688 217.131 247.979-215.451 193.703c-0.714-2.37-1.227-4.827-1.521-7.351zM853.333 704h-682.667c-3.277 0-6.468-0.369-9.533-1.069l275.316-247.567c38.485-34.601 95.865-36.371 136.284-5.283l6.236 5.182 277.222 248.609-2.859 0.128z" />
<glyph unicode="&#xe926;" glyph-name="external-link" d="M445.888 789.344c14.496 0 26.24-11.744 26.24-26.24s-11.744-26.24-26.24-26.24v0h-205.28c-9.472 0-17.152-7.68-17.152-17.152v0-542.784c0-9.472 7.68-17.152 17.152-17.152v0h542.784c9.472 0 17.152 7.68 17.152 17.152v0 216.832c0 14.496 11.744 26.24 26.24 26.24 7.008 0.096 13.792-2.624 18.784-7.552s7.808-11.648 7.808-18.688v0-216.832c0-38.624-31.328-69.952-69.952-69.952v0h-542.784c-38.624 0-69.952 31.328-69.952 69.952v0 542.432c0 38.624 31.328 69.952 69.952 69.952v0zM823.968 789.344c14.496 0 26.24-11.744 26.24-26.24v0-190.944c0-14.496-11.744-26.24-26.24-26.24s-26.24 11.744-26.24 26.24v0 127.648l-246.912-246.912c-4.928-4.928-11.584-7.68-18.528-7.68v0h-1.76c-10.592 0-20.16 6.4-24.224 16.192s-1.824 21.056 5.664 28.576v0l248.672 246.912h-127.648c-14.496 0-26.24 11.744-26.24 26.24s11.744 26.24 26.24 26.24v0z" />
<glyph unicode="&#xe927;" glyph-name="eye-cut" d="M96.864 442.592c253.696-333.92 581.952-315.68 830.272-1.344-253.696 335.264-553.504 335.264-830.272 1.344zM62.88 416.8c-12 15.808-11.52 37.76 1.12 53.024 294.176 354.944 626.72 354.56 897.152-2.848 11.712-15.488 11.488-36.96-0.544-52.192-270.688-342.624-631.904-347.872-897.728 1.984zM512 576.416c-74.688 0-135.296-58.464-135.296-130.592s60.576-130.592 135.296-130.592 135.296 58.464 135.296 130.592c0 72.128-60.576 130.592-135.296 130.592zM512 619.072c97.952 0 177.952-77.216 177.952-173.248s-80.032-173.248-177.952-173.248-177.952 77.248-177.952 173.248c0 96.032 80 173.248 177.952 173.248zM726.176 832.608c6.144 10.048 19.264 13.216 29.312 7.072s13.216-19.264 7.072-29.344l-469.344-768c-6.144-10.048-19.264-13.216-29.312-7.072s-13.216 19.264-7.072 29.312l469.344 768z" />
<glyph unicode="&#xe928;" glyph-name="eye" d="M96.864 442.592c253.696-333.92 581.952-315.68 830.272-1.344-253.696 335.264-553.504 335.264-830.272 1.344zM62.88 416.8c-12 15.808-11.52 37.76 1.12 53.024 294.176 354.944 626.72 354.56 897.152-2.848 11.712-15.488 11.488-36.96-0.544-52.192-270.688-342.624-631.904-347.872-897.728 1.984zM512 576.416c-74.688 0-135.296-58.464-135.296-130.592s60.576-130.592 135.296-130.592 135.296 58.464 135.296 130.592c0 72.128-60.576 130.592-135.296 130.592zM512 619.072c97.952 0 177.952-77.216 177.952-173.248s-80.032-173.248-177.952-173.248-177.952 77.248-177.952 173.248c0 96.032 80 173.248 177.952 173.248z" />
<glyph unicode="&#xe929;" glyph-name="faq-service" d="M551.104 386.176l-90.368-31.744 16.224-13.92c10.816-7.008 25.536-11.104 40.416-10.528l114.368 3.808c13.92 0.544 27.648 3.776 40.416 9.504l150.976 67.872c41.152 16.032 74.016 8.448 85.44-19.52 10.016-24.48-1.632-55.744-27.52-75.744l-148.192-84.672c-41.888-23.872-88.928-37.28-137.12-39.008l-243.040-8.832-78.656-90.912c-6.88-7.936-19.392-7.232-25.312 1.44l-102.016 149.248c-4.128 6.048-3.616 14.144 1.216 19.648l139.84 157.888c12.416 14.016 28.672 24.064 46.752 28.928l192.32 41.216c45.728 13.504 80.288-0.736 82.624-35.040 2.016-29.056-22.56-58.912-58.432-69.664zM180.224 250.944l83.232-121.792 69.632 80.48c2.912 3.36 7.072 5.344 11.52 5.536l249.984 9.088c43.040 1.568 85.024 13.504 122.432 34.848l146.336 83.424c13.472 10.592 19.648 27.168 15.616 37.024-3.712 9.024-17.568 12.224-43.488 2.144l-150.208-67.552c-16.512-7.424-34.304-11.616-52.384-12.288l-114.368-3.808c-21.504-0.832-42.784 5.12-60.8 17.024l-38.848 33.184c-9.344 8.032-6.496 23.168 5.12 27.232l117.216 41.152c23.2 6.976 37.312 24.096 36.416 37.056-0.672 9.856-13.12 14.976-42.848 6.24l-192.672-41.312c-11.232-3.040-22.048-9.728-30.304-19.072l-131.584-148.544zM608 784c-132.544 0-240-107.456-240-240h-32c0 150.208 121.792 272 272 272v-32zM706.56 536.704l-6.72 72.576 2.24 2.24c28.672 0.608 50.688 6.496 66.080 17.696s23.072 26.368 23.072 45.472v0.896c0 16.416-5.984 30.24-17.92 41.44s-27.776 16.8-47.488 16.8c-30.176 0-57.344-14.048-81.536-42.112l-22.848 21.952c28.672 34.656 63.776 51.968 105.28 51.968 29.856 0 54.048-8.352 72.576-25.088s27.776-37.92 27.776-63.616v-0.896c0-26.592-8.672-47.424-25.984-62.496s-39.712-24.576-67.2-28.448l-4.48-48.384h-22.848zM697.152 448v47.040h41.216v-47.040h-41.216z" />
<glyph unicode="&#xe92a;" glyph-name="find-service" d="M416 816c150.208 0 272-121.792 272-272 0-76.864-31.904-146.304-83.168-195.776l1.952-1.664 239.456-242.368c6.208-6.272 6.144-16.416-0.128-22.624-5.6-5.504-14.208-6.080-20.416-1.728l-2.208 1.856-239.456 242.368c-1.152 1.184-2.112 2.496-2.848 3.904-45.728-35.104-103.008-55.968-165.184-55.968-150.208 0-272 121.792-272 272s121.792 272 272 272zM416 784c-132.544 0-240-107.456-240-240s107.456-240 240-240c132.544 0 240 107.456 240 240s-107.456 240-240 240z" />
<glyph unicode="&#xe92b;" glyph-name="find-store" d="M538.112 126.656c34.208 33.12 69.184 70.272 101.6 109.088 89.504 107.104 143.232 206.976 143.68 284.992 0.48 88.352-19.456 133.408-79.488 193.408-105.984 105.984-277.824 105.984-383.808 0-57.536-57.536-79.84-109.152-79.488-193.088 0.32-78.144 54.304-177.888 144.512-285.344 32.384-38.56 67.136-75.392 101.888-109.12 8.992-8.736 17.504-16.8 25.408-24.128 7.776 7.104 16.48 15.296 25.664 24.192zM512 59.776c0 0-302.528 260.576-303.392 461.152-0.416 97.696 29.28 156.256 88.864 215.84 118.496 118.496 310.592 118.496 429.088 0 59.68-59.68 89.44-111.328 88.864-216.224-1.12-199.84-300.736-460.768-303.392-460.768zM512 448c53.024 0 96 42.976 96 96s-42.976 96-96 96c-53.024 0-96-42.976-96-96s42.976-96 96-96zM512 416c-70.688 0-128 57.312-128 128s57.312 128 128 128c70.688 0 128-57.312 128-128s-57.312-128-128-128z" />
<glyph unicode="&#xe92c;" glyph-name="generic" d="M768 768c35.36 0 64-28.64 64-64v-512c0-35.36-28.64-64-64-64h-512c-35.36 0-64 28.64-64 64v512c0 35.36 28.64 64 64 64h512zM768 736h-512c-16.416 0-29.952-12.352-31.776-28.256l-0.224-3.744v-512c0-16.416 12.352-29.952 28.256-31.776l3.744-0.224h512c16.416 0 29.952 12.352 31.776 28.256l0.224 3.744v512c0 16.416-12.352 29.952-28.256 31.776l-3.744 0.224zM637.6 544.16l132.224-132.224-22.624-22.624-108.352 108.384-223.936-249.696-23.808 21.376 64.288 71.68-51.296 51.296-125.568-135.648-23.488 21.728 148.192 160.032 73.568-73.6 160.832 179.264zM392 634.656c36.832 0 66.656-29.856 66.656-66.656s-29.856-66.656-66.656-66.656c-36.832 0-66.656 29.856-66.656 66.656s29.856 66.656 66.656 66.656zM392 602.656c-19.136 0-34.656-15.52-34.656-34.656s15.52-34.656 34.656-34.656c19.136 0 34.656 15.52 34.656 34.656s-15.52 34.656-34.656 34.656z" />
<glyph unicode="&#xe92d;" glyph-name="info-product" d="M512 768c-176 0-320-144-320-320s144-320 320-320c176 0 320 144 320 320s-144 320-320 320zM512 160c-160 0-288 128-288 288s128 288 288 288c160 0 288-128 288-288s-128-288-288-288zM544 576c0-17.664-14.336-32-32-32s-32 14.336-32 32c0 17.664 14.336 32 32 32s32-14.336 32-32zM512 480c-9.6 0-16-6.4-16-16v-192c0-9.6 6.4-16 16-16s16 6.4 16 16v192c0 9.6-6.4 16-16 16z" />
<glyph unicode="&#xe92e;" glyph-name="info" d="M512 960c282.784 0 512-229.216 512-512s-229.216-512-512-512c-282.784 0-512 229.216-512 512s229.216 512 512 512zM512 896c-247.424 0-448-200.576-448-448s200.576-448 448-448c247.424 0 448 200.576 448 448s-200.576 448-448 448zM512 512c17.664 0 32-14.336 32-32v-256c0-17.664-14.336-32-32-32s-32 14.336-32 32v256c0 17.664 14.336 32 32 32zM512 704c24.736 0 44.8-20.064 44.8-44.8s-20.064-44.8-44.8-44.8c-24.736 0-44.8 20.064-44.8 44.8s20.064 44.8 44.8 44.8z" />
<glyph unicode="&#xe92f;" glyph-name="l-check-small" d="M512 768c176.731 0 320-143.269 320-320s-143.269-320-320-320c-176.731 0-320 143.269-320 320s143.269 320 320 320zM674.402 559.922c-8.793 8.702-22.976 8.627-31.678-0.166v0l-167.012-168.652-75.823 76.299-4.040 3.226c-8.622 5.383-20.117 4.348-27.638-3.126-8.775-8.72-8.82-22.903-0.101-31.678v0l91.801-92.386 4.065-3.242c8.676-5.401 20.243-4.307 27.747 3.275v0l182.845 184.771 3.192 4.067c5.31 8.667 4.179 20.152-3.358 27.611z" />
<glyph unicode="&#xe930;" glyph-name="l-check" d="M512 768c176.731 0 320-143.269 320-320s-143.269-320-320-320c-176.731 0-320 143.269-320 320s143.269 320 320 320zM667.314 539.314c-6.248 6.248-16.379 6.248-22.627 0v0l-164.686-164.69-84.686 84.69-2.216 1.851c-6.236 4.32-14.857 3.703-20.411-1.851-6.248-6.248-6.248-16.379 0-22.627v0l96-96 2.216-1.851c2.338-1.62 5.012-2.546 7.734-2.777v0h2.727l2.695 0.463c2.658 0.694 5.172 2.083 7.255 4.166v0l176 176 1.851 2.216c4.32 6.236 3.703 14.857-1.851 20.411z" />
<glyph unicode="&#xe931;" glyph-name="l-collection-available" d="M800 346.656c103.104 0 186.656-83.584 186.656-186.656s-83.584-186.656-186.656-186.656c-103.104 0-186.656 83.584-186.656 186.656s83.584 186.656 186.656 186.656zM800 314.656c-85.408 0-154.656-69.248-154.656-154.656s69.248-154.656 154.656-154.656c85.408 0 154.656 69.248 154.656 154.656s-69.248 154.656-154.656 154.656zM800 283.104c7.84 0 14.4-5.664 15.744-13.12l0.256-2.88v-91.104h92.224c7.84 0 14.4-5.664 15.744-13.12l0.256-2.88c0-7.84-5.664-14.4-13.12-15.744l-2.88-0.256h-124.224v123.104c0 8.832 7.168 16 16 16zM714.432 784l113.12-154.368c11.52-15.744 18.432-34.304 20.064-53.664l0.352 0.032-0.16-4.896 0.16-3.904h-0.32c-2.048-27.68-13.664-52.768-31.648-72.32l0.032-79.36c-5.312 0.32-10.656 0.48-16.032 0.48s-10.688-0.16-15.968-0.48v54.24c-18.848-10.432-40.704-16.416-64-16.416-48.128 0-90.144 25.472-112.032 63.232-21.824-37.76-63.872-63.232-111.968-63.232s-90.144 25.472-112.032 63.232c-21.824-37.76-63.872-63.232-111.968-63.232-23.296 0-45.184 5.984-64.032 16.448l0.032-263.36c0-7.84 5.664-14.4 13.12-15.744l2.88-0.256 144.128 0.032-0.128 1.568v160c0 24.96 19.040 45.44 43.392 47.776l4.608 0.224h160c24.96 0 45.44-19.040 47.776-43.392l0.224-4.608v-6.112c-11.776-11.168-22.496-23.424-32-36.64v42.752c0 7.84-5.664 14.4-13.12 15.744l-2.88 0.256h-160c-7.84 0-14.4-5.664-15.744-13.12l-0.256-2.88v-160l-0.16-1.568 145.952-0.032c-1.184-9.984-1.792-20.128-1.792-30.4 0-0.544 0-1.088 0-1.6h-320c-24.96 0-45.44 19.040-47.776 43.392l-0.224 4.608-0.032 288.512c-17.984 19.552-29.6 44.64-31.616 72.288h-0.32l0.128 4.032-0.128 4.768 0.352-0.032c1.344 16.8 6.56 33.056 15.2 47.52l4.032 6.24 107.072 154.272h443.808zM698.208 752.032h-410.816l-97.536-140.544c-7.904-11.392-12.576-24.64-13.632-38.368l-0.064-1.984v-0.448c2.912-47.456 44.544-85.344 95.84-85.344s92.928 37.92 95.84 85.344l0.16 5.312c0 8.832 7.168 16 16 16s16-7.168 16-16c0-49.888 42.816-90.656 96-90.656s96 40.768 96 90.656c0 8.832 7.168 16 16 16 7.84 0 14.4-5.664 15.744-13.12l0.256-2.88c0-49.888 42.816-90.656 96-90.656 51.296 0 92.928 37.92 95.84 85.344v0.512l-0.064 1.856c-0.928 11.648-4.608 22.88-10.72 32.8l-3.264 4.864-103.552 141.312z" />
<glyph unicode="&#xe932;" glyph-name="l-diagnosis-estimate-approval" d="M800 346.656c103.104 0 186.656-83.584 186.656-186.656s-83.584-186.656-186.656-186.656c-103.104 0-186.656 83.584-186.656 186.656s83.584 186.656 186.656 186.656zM800 314.656c-85.408 0-154.656-69.248-154.656-154.656s69.248-154.656 154.656-154.656c85.408 0 154.656 69.248 154.656 154.656s-69.248 154.656-154.656 154.656zM768 848c24.96 0 45.44-19.040 47.776-43.392l0.224-4.608v-384.48c-5.312 0.32-10.624 0.48-16 0.48s-10.688-0.16-15.968-0.48l-0.032 384.48c0 7.84-5.664 14.4-13.12 15.744l-2.88 0.256h-544c-7.84 0-14.4-5.664-15.744-13.12l-0.256-2.88v-640c0-7.84 5.664-14.4 13.12-15.744l2.88-0.256h320.48c0.672-10.88 2.016-21.536 4-32l-324.48 0.032c-24.96 0-45.44 19.040-47.776 43.392l-0.224 4.608v640c0 24.96 19.040 45.44 43.392 47.776l4.608 0.224h544zM800 283.104c7.84 0 14.4-5.664 15.744-13.12l0.256-2.88v-91.104h92.224c7.84 0 14.4-5.664 15.744-13.12l0.256-2.88c0-7.84-5.664-14.4-13.12-15.744l-2.88-0.256h-124.224v123.104c0 8.832 7.168 16 16 16zM409.12 477.12c26.496 0 48-21.504 48-48v0-58.656c0-26.496-21.504-48-48-48v0h-58.656c-26.496 0-48 21.504-48 48v0 58.656c0 26.496 21.504 48 48 48v0zM409.12 445.12h-58.656c-8.832 0-16-7.168-16-16v0-58.656c0-8.832 7.168-16 16-16v0h58.656c8.832 0 16 7.168 16 16v0 58.656c0 8.832-7.168 16-16 16v0zM618.944 415.776c8.832 0 16-7.168 16-16 0-7.84-5.664-14.4-13.12-15.744l-2.88-0.256h-89.92c-8.832 0-16 7.168-16 16 0 7.84 5.664 14.4 13.12 15.744l2.88 0.256h89.92zM449.696 683.36c5.568-5.536 6.208-14.144 1.92-20.416l-1.856-2.208-90.464-90.976-50.176 46.752c-6.464 6.016-6.816 16.16-0.8 22.624 3.36 3.584 7.968 5.312 12.512 5.088l2.72-0.352c1.792-0.384 3.52-1.12 5.12-2.144l2.272-1.76 27.488-25.632 68.672 69.024c2.784 2.784 6.304 4.352 9.952 4.672h2.72c3.616-0.288 7.168-1.824 9.952-4.608zM618.944 639.776c8.832 0 16-7.168 16-16 0-7.84-5.664-14.4-13.12-15.744l-2.88-0.256h-89.92c-8.832 0-16 7.168-16 16 0 7.84 5.664 14.4 13.12 15.744l2.88 0.256h89.92z" />
<glyph unicode="&#xe933;" glyph-name="l-diagnosis-estimate" d="M736 432c114.88 0 208-93.12 208-208 0-51.52-18.72-98.688-49.76-135.008l96.576-97.184c6.24-6.272 6.208-16.384-0.064-22.624-5.568-5.536-14.208-6.112-20.416-1.792l-2.208 1.856-96.48 97.056c-36.416-31.36-83.808-50.304-135.648-50.304-114.88 0-208 93.12-208 208s93.12 208 208 208zM736 400c-97.216 0-176-78.784-176-176s78.784-176 176-176c97.216 0 176 78.784 176 176s-78.784 176-176 176zM768 848c24.96 0 45.44-19.040 47.776-43.392l0.224-4.608 0.032-315.968c-10.432 3.2-21.088 5.792-32 7.744l-0.032 308.224c0 7.84-5.664 14.4-13.12 15.744l-2.88 0.256h-544c-7.84 0-14.4-5.664-15.744-13.12l-0.256-2.88v-640c0-7.84 5.664-14.4 13.12-15.744l2.88-0.256 251.968-0.032c3.36-10.976 7.424-21.664 12.096-32l-264.064 0.032c-24.96 0-45.44 19.040-47.776 43.392l-0.224 4.608v640c0 24.96 19.040 45.44 43.392 47.776l4.608 0.224h544zM409.12 477.12c26.496 0 48-21.504 48-48v0-58.656c0-26.496-21.504-48-48-48v0h-58.656c-26.496 0-48 21.504-48 48v0 58.656c0 26.496 21.504 48 48 48v0zM409.12 445.12h-58.656c-8.832 0-16-7.168-16-16v0-58.656c0-8.832 7.168-16 16-16v0h58.656c8.832 0 16 7.168 16 16v0 58.656c0 8.832-7.168 16-16 16v0zM409.12 701.12c26.496 0 48-21.504 48-48v0-58.656c0-26.496-21.504-48-48-48v0h-58.656c-26.496 0-48 21.504-48 48v0 58.656c0 26.496 21.504 48 48 48v0zM409.12 669.12h-58.656c-8.832 0-16-7.168-16-16v0-58.656c0-8.832 7.168-16 16-16v0h58.656c8.832 0 16 7.168 16 16v0 58.656c0 8.832-7.168 16-16 16v0zM618.944 639.776c8.832 0 16-7.168 16-16 0-7.84-5.664-14.4-13.12-15.744l-2.88-0.256h-89.92c-8.832 0-16 7.168-16 16 0 7.84 5.664 14.4 13.12 15.744l2.88 0.256h89.92z" />
<glyph unicode="&#xe934;" glyph-name="l-fail-small" d="M512 768c176.731 0 320-143.269 320-320s-143.269-320-320-320c-176.731 0-320 143.269-320 320s143.269 320 320 320zM675.107 604.571c-8.71 8.785-22.893 8.846-31.678 0.135v0l-128.229-127.139-128.229 127.139-4.064 3.196c-8.662 5.319-20.148 4.199-27.614-3.332-8.71-8.785-8.65-22.968 0.135-31.678v0l127.899-126.877-127.899-126.858-3.231-4.036c-5.393-8.616-4.371-20.112 3.095-27.642 8.71-8.785 22.893-8.846 31.678-0.135v0l128.229 127.184 128.229-127.184 4.064-3.196c8.662-5.319 20.148-4.199 27.614 3.332 8.71 8.785 8.65 22.968-0.135 31.678v0l-127.963 126.858 127.963 126.877 3.231 4.036c5.393 8.616 4.371 20.112-3.095 27.642z" />
<glyph unicode="&#xe935;" glyph-name="l-fail" d="M512 768c176.731 0 320-143.269 320-320s-143.269-320-320-320c-176.731 0-320 143.269-320 320s143.269 320 320 320zM406.658 574.554c-5.904 2.7-13.112 1.62-17.972-3.24-6.248-6.248-6.248-16.379 0-22.627v0l100.69-100.686-100.69-100.686-1.851-2.216c-4.32-6.236-3.703-14.857 1.851-20.411 6.248-6.248 16.379-6.248 22.627 0v0l100.686 100.69 100.686-100.69 2.216-1.851c6.236-4.32 14.857-3.703 20.411 1.851 6.248 6.248 6.248 16.379 0 22.627v0l-100.69 100.686 100.69 100.686 1.851 2.216c4.32 6.236 3.703 14.857-1.851 20.411-6.248 6.248-16.379 6.248-22.627 0v0l-100.686-100.69-100.686 100.69-2.216 1.851z" />
<glyph unicode="&#xe936;" glyph-name="l-payment" d="M800 346.656c103.104 0 186.656-83.584 186.656-186.656s-83.584-186.656-186.656-186.656c-103.104 0-186.656 83.584-186.656 186.656s83.584 186.656 186.656 186.656zM800 314.656c-85.408 0-154.656-69.248-154.656-154.656s69.248-154.656 154.656-154.656c85.408 0 154.656 69.248 154.656 154.656s-69.248 154.656-154.656 154.656zM841.952 237.376l2.080-1.984 56.768-64.864c4.608-5.28 5.184-12.8 1.76-18.656l-1.728-2.4-56.768-65.152c-5.792-6.656-15.904-7.36-22.56-1.568-5.92 5.152-7.136 13.728-3.264 20.224l1.696 2.336 33.568 38.624h-134.464c-8.832 0-16 7.168-16 16 0 7.84 5.664 14.4 13.12 15.744l2.88 0.256h134.432l-33.504 38.304c-5.184 5.92-5.216 14.56-0.48 20.48l1.984 2.080c5.92 5.184 14.56 5.216 20.48 0.48zM800 752c24.96 0 45.44-19.040 47.776-43.392l0.224-4.608 0.032-276.224c-10.464 1.856-21.152 3.136-32 3.776v75.136h-608v-250.688c0-7.84 5.664-14.4 13.12-15.744l2.88-0.256h315.968c-3.2-10.432-5.792-21.088-7.744-32h-308.224c-24.96 0-45.44 19.040-47.776 43.392l-0.224 4.608v448c0 24.96 19.040 45.44 43.392 47.776l4.608 0.224h576zM362.656 336v-32h-85.344v32h85.344zM816 592h-608v-53.312h608v53.312zM800 720h-576c-7.84 0-14.4-5.664-15.744-13.12l-0.256-2.88v-80h608v80c0 7.84-5.664 14.4-13.12 15.744l-2.88 0.256z" />
<glyph unicode="&#xe937;" glyph-name="l-service-closure" d="M510.912 490.88c45.728 13.504 80.256-0.736 82.656-35.040 2.016-29.056-22.56-58.912-58.432-69.664v0l-90.368-31.744 16.224-13.92c10.816-7.008 25.536-11.104 40.416-10.528v0l114.368 3.808c13.92 0.544 27.648 3.776 40.416 9.504v0l150.976 67.872c41.152 16.032 74.016 8.448 85.44-19.52 10.016-24.48-1.632-55.744-27.52-75.744v0l-148.192-84.672c-41.888-23.872-88.928-37.28-137.12-39.008v0l-243.040-8.832-78.656-90.912c-6.88-7.936-19.392-7.232-25.312 1.44v0l-102.016 149.248c-4.128 6.048-3.616 14.144 1.216 19.648v0l139.84 157.888c12.416 14.016 28.672 24.064 46.752 28.928v0zM561.632 453.632c-0.672 9.856-13.12 14.976-42.848 6.24v0l-192.672-41.312c-11.232-3.040-22.048-9.728-30.304-19.072v0l-131.584-148.544 83.232-121.792 69.632 80.48c2.912 3.36 7.072 5.344 11.52 5.536v0l249.984 9.088c43.040 1.568 85.024 13.504 122.432 34.848v0l146.336 83.424c13.472 10.592 19.648 27.168 15.616 37.024-3.712 9.024-17.568 12.224-43.488 2.144v0l-150.208-67.552c-16.512-7.424-34.304-11.616-52.384-12.288v0l-114.368-3.808c-21.504-0.832-42.784 5.12-60.8 17.024v0l-38.848 33.184c-9.344 8.032-6.496 23.168 5.12 27.232v0l117.216 41.152c23.2 6.976 37.312 24.096 36.416 37.056zM576.032 768v-32c-132.544 0-240-107.456-240-240h-32c0 150.208 121.792 272 272 272zM875.648 736l22.624-22.624-90.496-90.496 90.496-90.528-22.624-22.624-90.528 90.496-90.496-90.496-22.624 22.624 90.464 90.528-90.464 90.496 22.624 22.624 90.496-90.496 90.528 90.496z" />
<glyph unicode="&#xe938;" glyph-name="l-service-delay" d="M510.912 490.88c45.728 13.504 80.256-0.736 82.656-35.040 2.016-29.056-22.56-58.912-58.432-69.664v0l-90.368-31.744 16.224-13.92c10.816-7.008 25.536-11.104 40.416-10.528v0l114.368 3.808c13.92 0.544 27.648 3.776 40.416 9.504v0l150.976 67.872c41.152 16.032 74.016 8.448 85.44-19.52 10.016-24.48-1.632-55.744-27.52-75.744v0l-148.192-84.672c-41.888-23.872-88.928-37.28-137.12-39.008v0l-243.040-8.832-78.656-90.912c-6.88-7.936-19.392-7.232-25.312 1.44v0l-102.016 149.248c-4.128 6.048-3.616 14.144 1.216 19.648v0l139.84 157.888c12.416 14.016 28.672 24.064 46.752 28.928v0zM561.632 453.632c-0.672 9.856-13.12 14.976-42.848 6.24v0l-192.672-41.312c-11.232-3.040-22.048-9.728-30.304-19.072v0l-131.584-148.544 83.232-121.792 69.632 80.48c2.912 3.36 7.072 5.344 11.52 5.536v0l249.984 9.088c43.040 1.568 85.024 13.504 122.432 34.848v0l146.336 83.424c13.472 10.592 19.648 27.168 15.616 37.024-3.712 9.024-17.568 12.224-43.488 2.144v0l-150.208-67.552c-16.512-7.424-34.304-11.616-52.384-12.288v0l-114.368-3.808c-21.504-0.832-42.784 5.12-60.8 17.024v0l-38.848 33.184c-9.344 8.032-6.496 23.168 5.12 27.232v0l117.216 41.152c23.2 6.976 37.312 24.096 36.416 37.056zM762.656 832c103.104 0 186.656-83.584 186.656-186.656s-83.584-186.656-186.656-186.656c-103.104 0-186.656 83.584-186.656 186.656s83.584 186.656 186.656 186.656zM762.656 800c-85.408 0-154.656-69.248-154.656-154.656s69.248-154.656 154.656-154.656c85.408 0 154.656 69.248 154.656 154.656s-69.248 154.656-154.656 154.656zM557.376 767.36c-8.672-10.976-16.288-22.656-22.624-34.944-112.864-19.52-198.72-117.952-198.72-236.448h-32c0 142.016 108.864 258.624 247.68 270.912l5.664 0.448zM762.656 768.448c7.84 0 14.4-5.664 15.744-13.12l0.256-2.88v-91.104h92.224c7.84 0 14.4-5.664 15.744-13.12l0.256-2.88c0-7.84-5.664-14.4-13.12-15.744l-2.88-0.256h-124.224v123.104c0 8.832 7.168 16 16 16z" />
<glyph unicode="&#xe939;" glyph-name="l-service-ongoing" d="M510.912 490.88c45.728 13.504 80.256-0.736 82.656-35.040 2.016-29.056-22.56-58.912-58.432-69.664v0l-90.368-31.744 16.224-13.92c10.816-7.008 25.536-11.104 40.416-10.528v0l114.368 3.808c13.92 0.544 27.648 3.776 40.416 9.504v0l150.976 67.872c41.152 16.032 74.016 8.448 85.44-19.52 10.016-24.48-1.632-55.744-27.52-75.744v0l-148.192-84.672c-41.888-23.872-88.928-37.28-137.12-39.008v0l-243.040-8.832-78.656-90.912c-6.88-7.936-19.392-7.232-25.312 1.44v0l-102.016 149.248c-4.128 6.048-3.616 14.144 1.216 19.648v0l139.84 157.888c12.416 14.016 28.672 24.064 46.752 28.928v0zM561.632 453.632c-0.672 9.856-13.12 14.976-42.848 6.24v0l-192.672-41.312c-11.232-3.040-22.048-9.728-30.304-19.072v0l-131.584-148.544 83.232-121.792 69.632 80.48c2.912 3.36 7.072 5.344 11.52 5.536v0l249.984 9.088c43.040 1.568 85.024 13.504 122.432 34.848v0l146.336 83.424c13.472 10.592 19.648 27.168 15.616 37.024-3.712 9.024-17.568 12.224-43.488 2.144v0l-150.208-67.552c-16.512-7.424-34.304-11.616-52.384-12.288v0l-114.368-3.808c-21.504-0.832-42.784 5.12-60.8 17.024v0l-38.848 33.184c-9.344 8.032-6.496 23.168 5.12 27.232v0l117.216 41.152c23.2 6.976 37.312 24.096 36.416 37.056zM576.288 784c5.536 0 11.040-0.192 16.544-0.512v0l-1.952-31.936c-4.864 0.288-9.728 0.448-14.624 0.448-0.352 0-0.704 0-1.056 0h0.768c-4 0-7.968-0.096-11.904-0.288l-3.488-0.192c-10.368-0.672-20.544-1.952-30.464-3.904-2.784-0.544-5.568-1.12-8.32-1.76l8.32 1.76c-3.904-0.768-7.808-1.6-11.648-2.56l3.328 0.8c-3.072-0.704-6.144-1.472-9.216-2.304l5.856 1.504c-13.6-3.36-26.784-7.872-39.36-13.408l-5.92-2.72c-5.536-2.624-10.976-5.472-16.32-8.512-9.984-5.728-19.52-12.16-28.544-19.2l-5.536-4.48c-2.304-1.92-4.576-3.872-6.816-5.888-0.64-0.576-1.312-1.184-1.952-1.76l1.952 1.76c-2.336-2.080-4.608-4.192-6.848-6.368l4.896 4.608c-12.64-11.552-24-24.448-33.92-38.432-1.28-1.792-2.496-3.584-3.712-5.376l3.712 5.376c-1.792-2.528-3.52-5.088-5.216-7.648l1.504 2.272c-4.032-6.048-7.808-12.256-11.296-18.624l0.32 0.544c-4.48-8.16-8.48-16.64-12-25.344l-1.76-4.48c-2.176-5.728-4.128-11.552-5.888-17.44-3.936-13.376-6.752-27.232-8.288-41.472-0.128-1.248-0.256-2.528-0.384-3.776l0.384 3.776c-0.32-2.816-0.576-5.664-0.768-8.544l0.384 4.768c-0.32-3.424-0.576-6.88-0.736-10.336l0.352 5.6c-0.224-2.816-0.384-5.664-0.48-8.544l-0.192-8.864v-0.512h-32c0 3.808 0.064 7.616 0.224 11.36 0.032 0.48 0.032 0.96 0.064 1.44 0.992 21.312 4.416 41.952 10.016 61.696 0.128 0.48 0.288 0.96 0.416 1.472 1.888 6.56 4.032 13.024 6.432 19.36l0.544 1.44c7.008 18.4 15.936 35.808 26.56 52.032 2.208 3.36 4.48 6.688 6.816 9.952l-5.312-7.648c1.248 1.856 2.496 3.68 3.776 5.504l1.536 2.144c6.912 9.6 14.432 18.72 22.496 27.328 0.576 0.608 1.152 1.216 1.728 1.824 1.504 1.568 3.040 3.136 4.576 4.672 0.704 0.704 1.44 1.408 2.144 2.144 2.272 2.24 4.608 4.416 6.976 6.56 3.040 2.752 6.144 5.472 9.312 8.096l-7.584-6.528c10.912 9.76 22.592 18.656 34.976 26.56 0.608 0.384 1.248 0.8 1.888 1.184 2.144 1.344 4.288 2.656 6.464 3.936 0.576 0.352 1.152 0.672 1.76 1.024 2.944 1.696 5.92 3.36 8.96 4.96 3.52 1.856 7.072 3.648 10.656 5.344l-8.832-4.384c2.176 1.12 4.352 2.24 6.56 3.296l2.272 1.088c10.464 4.96 21.28 9.28 32.384 12.896 0.48 0.16 0.96 0.32 1.44 0.448 9.92 3.168 20.096 5.792 30.496 7.808l1.024 0.192c13.984 2.656 28.384 4.256 43.040 4.704l8.16 0.128zM845.888 545.92c1.408-11.2 2.112-22.528 2.112-33.92v0h-32c0 10.080-0.608 20.096-1.856 29.952v0zM829.088 611.84c4.16-10.528 7.648-21.344 10.464-32.352v0l-31.008-7.904c-2.464 9.696-5.568 19.232-9.216 28.512v0zM795.744 672.352c6.688-9.152 12.8-18.72 18.304-28.64v0l-28-15.52c-4.864 8.768-10.24 17.184-16.16 25.28v0zM749.44 721.536c8.736-7.232 16.992-15.008 24.768-23.264v0l-23.328-21.92c-6.848 7.296-14.176 14.144-21.856 20.544v0zM690.688 758.72c10.304-4.8 20.256-10.208 29.856-16.256v0l-17.024-27.104c-8.48 5.312-17.28 10.112-26.336 14.336v0zM623.232 779.904c11.2-1.952 22.24-4.608 33.056-7.968v0l-9.44-30.592c-9.536 2.944-19.264 5.28-29.152 7.008v0z" />
<glyph unicode="&#xe93a;" glyph-name="l-shipping-pick-up" d="M224 346.656c103.104 0 186.656-83.584 186.656-186.656s-83.584-186.656-186.656-186.656c-103.104 0-186.656 83.584-186.656 186.656s83.584 186.656 186.656 186.656zM224 314.656c-85.408 0-154.656-69.248-154.656-154.656s69.248-154.656 154.656-154.656c85.408 0 154.656 69.248 154.656 154.656s-69.248 154.656-154.656 154.656zM265.952 236.544l2.080-1.984 56.768-64.864c4.608-5.28 5.184-12.8 1.76-18.656l-1.728-2.4-56.768-65.152c-5.792-6.656-15.904-7.36-22.56-1.568-5.92 5.152-7.136 13.728-3.264 20.224l1.696 2.336 33.664 38.656-133.472-0.032c-8.832 0-16 7.168-16 16 0 7.84 5.664 14.4 13.12 15.744l2.88 0.256 133.344 0.032-33.504 38.304c-5.184 5.92-5.216 14.56-0.48 20.48l1.984 2.080c5.92 5.184 14.56 5.216 20.48 0.48zM723.488 752l114.496-148.288c6.496-8.416 10.016-18.72 10.016-29.344v-382.368c0-26.496-21.504-48-48-48l-320.48-0.032c0.32 5.312 0.48 10.656 0.48 16.032s-0.16 10.688-0.48 15.968l320.48 0.032c8.832 0 16 7.168 16 16v368h-608v-144.48c-10.88-0.672-21.536-2.016-32-4v163.104c0 10.624 3.52 20.96 10.016 29.376l114.496 148.032h422.976zM496 720.032l-179.808-0.032-99.008-128h278.816v128.032zM707.808 720l-179.808 0.032v-128.032h278.624l-98.816 128z" />
<glyph unicode="&#xe93b;" glyph-name="l-shipping-product-comingup" d="M723.488 752l114.496-148.032c6.496-8.416 10.016-18.72 10.016-29.376v0l0.032-163.104c-10.464 1.984-21.12 3.328-32 4l-0.032 159.104c0 3.552-1.184 6.976-3.328 9.792v0l-104.864 135.616h-391.616l-104.864-135.84c-1.632-2.112-2.688-4.576-3.104-7.136v0l-0.224-2.624v-382.368c0-8.832 7.168-16 16-16v0l320.48-0.032c-0.32-5.28-0.48-10.624-0.48-15.968s0.16-10.72 0.48-16.032l-320.48 0.032c-26.496 0-48 21.504-48 48v0 382.368c0 10.624 3.52 20.928 10.016 29.344v0l114.496 148.288h422.976zM832 592v-32h-640v32zM336 736v-160h-32v160zM720 736v-160h-32v160zM800 346.656c103.104 0 186.656-83.584 186.656-186.656s-83.584-186.656-186.656-186.656c-103.104 0-186.656 83.584-186.656 186.656s83.584 186.656 186.656 186.656zM800 314.656c-85.408 0-154.656-69.248-154.656-154.656s69.248-154.656 154.656-154.656c85.408 0 154.656 69.248 154.656 154.656s-69.248 154.656-154.656 154.656zM800 283.104c7.84 0 14.4-5.664 15.744-13.12l0.256-2.88v-91.104h92.224c7.84 0 14.4-5.664 15.744-13.12l0.256-2.88c0-7.84-5.664-14.4-13.12-15.744l-2.88-0.256h-124.224v123.104c0 8.832 7.168 16 16 16zM268.256 883.904c10.752 3.264 22.080-1.952 26.752-11.808l1.184-3.104 39.104-128.32-30.624-9.312-35.52 116.608-86.944-52.032c-4.864-2.912-7.776-8.128-7.776-13.664l0.224-2.784 33.088-191.456-31.52-5.44-33.088 191.456c-3.104 18.048 4.32 36.16 18.88 46.848l3.776 2.528 97.472 58.304 2.432 1.248c0.608 0.288 1.28 0.512 2.56 0.96zM758.304 883.904c-10.752 3.264-22.080-1.952-26.752-11.808l-1.184-3.104-39.104-128.32 30.624-9.312 35.52 116.608 86.912-52.032c4.864-2.912 7.776-8.128 7.776-13.664l-0.224-2.784-33.088-191.456 31.52-5.44 33.088 191.456c3.104 18.048-4.32 36.16-18.88 46.848l-3.776 2.528-97.472 58.304-2.432 1.248c-0.608 0.288-1.28 0.512-2.56 0.96z" />
<glyph unicode="&#xe93c;" glyph-name="l-shipping-sk" d="M800 346.656c103.104 0 186.656-83.584 186.656-186.656s-83.584-186.656-186.656-186.656c-103.104 0-186.656 83.584-186.656 186.656s83.584 186.656 186.656 186.656zM800 314.656c-85.408 0-154.656-69.248-154.656-154.656s69.248-154.656 154.656-154.656c85.408 0 154.656 69.248 154.656 154.656s-69.248 154.656-154.656 154.656zM841.952 237.376l2.080-1.984 56.768-64.864c4.608-5.28 5.184-12.8 1.76-18.656l-1.728-2.4-56.768-65.152c-5.792-6.656-15.904-7.36-22.56-1.568-5.92 5.152-7.136 13.728-3.264 20.224l1.696 2.336 33.6 38.624h-134.496c-8.832 0-16 7.168-16 16 0 7.84 5.664 14.4 13.12 15.744l2.88 0.256h134.432l-33.504 38.304c-5.184 5.92-5.216 14.56-0.48 20.48l1.984 2.080c5.92 5.184 14.56 5.216 20.48 0.48zM723.488 752l114.496-148.032c5.408-7.008 8.768-15.36 9.728-24.096l0.288-5.28 0.032-163.104c-10.464 1.984-21.12 3.328-32 4l-0.032 144.48h-608v-368c0-7.84 5.664-14.4 13.12-15.744l2.88-0.256h320.48c-0.32-5.312-0.48-10.624-0.48-16s0.16-10.72 0.48-16.032l-320.48 0.032c-24.96 0-45.44 19.040-47.776 43.392l-0.224 4.608v382.368c0 8.832 2.432 17.472 7.008 24.992l3.008 4.352 114.496 148.288h422.976zM496 720.032l-179.808-0.032-98.816-128h278.624v128.032zM707.808 720l-179.808 0.032v-128.032h278.784l-98.976 128z" />
<glyph unicode="&#xe93d;" glyph-name="l-shipping-waiting" d="M800 346.656c103.104 0 186.656-83.584 186.656-186.656s-83.584-186.656-186.656-186.656c-103.104 0-186.656 83.584-186.656 186.656s83.584 186.656 186.656 186.656zM800 314.656c-85.408 0-154.656-69.248-154.656-154.656s69.248-154.656 154.656-154.656c85.408 0 154.656 69.248 154.656 154.656s-69.248 154.656-154.656 154.656zM723.488 752l114.496-148.032c5.408-7.008 8.768-15.36 9.728-24.096l0.288-5.28 0.032-163.104c-10.464 1.984-21.12 3.328-32 4l-0.032 144.48h-608v-368c0-7.84 5.664-14.4 13.12-15.744l2.88-0.256 320.48-0.032c-0.32-5.28-0.48-10.624-0.48-15.968s0.16-10.72 0.48-16.032l-320.48 0.032c-24.96 0-45.44 19.040-47.776 43.392l-0.224 4.608v382.368c0 8.832 2.432 17.472 7.008 24.992l3.008 4.352 114.496 148.288h422.976zM800 283.104c7.84 0 14.4-5.664 15.744-13.12l0.256-2.88v-91.104h92.224c7.84 0 14.4-5.664 15.744-13.12l0.256-2.88c0-7.84-5.664-14.4-13.12-15.744l-2.88-0.256h-124.224v123.104c0 8.832 7.168 16 16 16zM496 720.032l-179.808-0.032-98.816-128h278.624v128.032zM707.808 720l-179.808 0.032v-128.032h278.784l-98.976 128z" />
<glyph unicode="&#xe93e;" glyph-name="l-step-comingup" d="M512 960c282.784 0 512-229.216 512-512s-229.216-512-512-512c-282.784 0-512 229.216-512 512s229.216 512 512 512zM512 832c-212.064 0-384-171.936-384-384s171.936-384 384-384c212.064 0 384 171.936 384 384s-171.936 384-384 384z" />
<glyph unicode="&#xe93f;" glyph-name="l-tracking-stopped" d="M698.656 448c103.104 0 186.656-83.584 186.656-186.656 0-46.112-16.736-88.32-44.448-120.896 0.096-0.032 0.192-0.128 0.32-0.192l2.208-1.856 113.792-115.904c6.176-6.304 6.112-16.448-0.192-22.624-5.6-5.504-14.24-6.048-20.416-1.664l-2.208 1.856-113.792 115.904c-0.736 0.768-1.408 1.568-1.952 2.432-32.384-27.264-74.24-43.712-119.968-43.712-103.104 0-186.656 83.584-186.656 186.656s83.584 186.656 186.656 186.656zM698.656 416c-85.408 0-154.656-69.248-154.656-154.656s69.248-154.656 154.656-154.656c85.408 0 154.656 69.248 154.656 154.656s-69.248 154.656-154.656 154.656zM723.488 752l114.496-148.032c5.408-7.008 8.768-15.36 9.728-24.096l0.288-5.28 0.032-106.944c-10.176 6.944-20.864 13.152-32.032 18.592v73.728h-608v-368c0-7.84 5.664-14.4 13.12-15.744l2.88-0.256 236.768-0.032c3.616-11.008 7.968-21.696 12.992-32h-249.728c-24.96 0-45.44 19.040-47.776 43.392l-0.224 4.608v382.368c0 8.832 2.432 17.472 7.008 24.992l3.008 4.352 114.496 148.288h422.976zM646.656 334.56l2.432-1.376 2.208-1.856 52.672-52.704 52.672 52.704c6.24 6.24 16.384 6.24 22.624 0 5.568-5.568 6.176-14.176 1.856-20.416l-1.856-2.208-52.704-52.672 52.704-52.672c6.24-6.24 6.24-16.384 0-22.624-5.568-5.568-14.176-6.176-20.416-1.856l-2.208 1.856-52.672 52.704-52.672-52.704c-6.24-6.24-16.384-6.24-22.624 0-5.568 5.568-6.176 14.176-1.856 20.416l1.856 2.208 52.704 52.672-52.704 52.672c-6.24 6.24-6.24 16.384 0 22.624 4.864 4.864 12.064 5.952 17.984 3.232zM496 720.032l-179.808-0.032-98.816-128h278.624v128.032zM707.808 720l-179.808 0.032v-128.032h278.784l-98.976 128z" />
<glyph unicode="&#xe940;" glyph-name="l-waiting-client" d="M800 346.656c103.104 0 186.656-83.584 186.656-186.656s-83.584-186.656-186.656-186.656c-103.104 0-186.656 83.584-186.656 186.656s83.584 186.656 186.656 186.656zM800 314.656c-85.408 0-154.656-69.248-154.656-154.656s69.248-154.656 154.656-154.656c85.408 0 154.656 69.248 154.656 154.656s-69.248 154.656-154.656 154.656zM464 832c88.192 0 160-72.576 160-161.056v-61.92c0-68.032-42.432-126.656-102.144-150.112 0.16-2.080 0.544-5.088 1.216-8.704 1.76-9.152 4.928-18.304 9.76-26.72 8.416-14.656 21.12-25.664 39.392-32.032 3.008-1.024 15.648-5.376 18.816-6.464 8.288-2.88 15.296-5.376 22.336-8 11.296-4.224 21.888-8.48 32.064-12.96-10.336-7.808-20-16.352-28.992-25.6-4.896 2.016-9.984 4-15.232 5.952-6.72 2.496-13.504 4.928-21.536 7.712-3.072 1.056-15.776 5.408-18.88 6.496-26.496 9.216-45.664 25.888-58.144 47.552-8.928 15.52-13.344 30.88-14.976 43.712-7.68-1.248-15.616-1.856-23.68-1.856-8.864 0-17.536 0.736-26.016 2.144-1.568-12.832-5.984-28.32-14.976-44-12.48-21.664-31.648-38.336-58.144-47.552-3.136-1.088-15.84-5.44-18.88-6.496-8.064-2.784-14.816-5.216-21.536-7.712-17.344-6.464-32.768-12.992-47.328-20.224-45.6-22.688-78.016-50.24-94.88-85.056-9.664-19.936 2.624-45.504 26.080-57.6 88.704-45.728 215.616-61.216 336.864-46.144 1.088-11.712 3.008-23.168 5.632-34.336-128.352-16.224-262.912 0.352-358.432 49.568-38.816 20-60.352 64.832-41.472 103.744 20.768 42.88 58.816 75.232 110.688 101.024 15.776 7.84 32.288 14.816 50.656 21.696 7.008 2.624 14.016 5.12 22.304 8 3.104 1.088 15.808 5.408 18.816 6.464 18.304 6.368 30.976 17.376 39.392 32.032 4.832 8.416 8 17.568 9.76 26.72 0.8 4.128 1.184 7.488 1.312 9.664-58.528 24-99.904 82.016-99.904 149.184v61.92c0 88.448 71.808 161.056 160 161.056zM800 283.104c7.84 0 14.4-5.664 15.744-13.12l0.256-2.88v-91.104h92.224c7.84 0 14.4-5.664 15.744-13.12l0.256-2.88c0-7.84-5.664-14.4-13.12-15.744l-2.88-0.256h-124.224v123.104c0 8.832 7.168 16 16 16zM464 800c-70.208 0-128-57.856-128-128.8v-62.368c0-70.976 57.792-128.8 128-128.8s128 57.856 128 128.8v62.368c0 70.976-57.792 128.8-128 128.8z" />
<glyph unicode="&#xe941;" glyph-name="lens" d="M512 810.656c200.288 0 362.656-162.368 362.656-362.656s-162.368-362.656-362.656-362.656c-200.288 0-362.656 162.368-362.656 362.656s162.368 362.656 362.656 362.656zM512 768c-176.736 0-320-143.264-320-320s143.264-320 320-320c176.736 0 320 143.264 320 320s-143.264 320-320 320zM512 682.656c129.6 0 234.656-105.056 234.656-234.656s-105.056-234.656-234.656-234.656c-129.6 0-234.656 105.056-234.656 234.656s105.056 234.656 234.656 234.656zM512 640c-106.048 0-192-85.952-192-192s85.952-192 192-192c106.048 0 192 85.952 192 192s-85.952 192-192 192zM512 586.656c-76.576 0-138.656-62.080-138.656-138.656 0-5.888 4.768-10.656 10.656-10.656s10.656 4.768 10.656 10.656c0 64.8 52.544 117.344 117.344 117.344 5.888 0 10.656 4.768 10.656 10.656s-4.768 10.656-10.656 10.656zM640 362.656c0-23.552-19.104-42.656-42.656-42.656s-42.656 19.104-42.656 42.656c0 23.552 19.104 42.656 42.656 42.656s42.656-19.104 42.656-42.656z" />
<glyph unicode="&#xe942;" glyph-name="location" d="M917.344 490.656c58.912 0 106.656-47.744 106.656-106.656v0-341.344c0-58.912-47.744-106.656-106.656-106.656v0h-298.656c-58.912 0-106.656 47.744-106.656 106.656v0 341.344c0 58.912 47.744 106.656 106.656 106.656v0zM917.344 448h-298.656c-35.36 0-64-28.64-64-64v0-341.344c0-35.36 28.64-64 64-64v0h298.656c35.36 0 64 28.64 64 64v0 341.344c0 35.36-28.64 64-64 64v0zM448 960c225.696 0 412.416-166.88 443.456-384l-43.136-0.032c-3.488 21.984-8.736 43.36-15.616 64h-200.288c2.528-20.736 4.448-42.080 5.728-63.936l-42.784-0.032c-1.376 21.984-3.424 43.328-6.080 63.968h-282.528c-5.184-40.192-8.064-83.2-8.064-128s2.88-87.84 8.064-128.032l119.936 0.032v-42.656l-113.376-0.032c21.76-121.152 65.312-209.504 113.376-230.048v-46.752c-237.536 11.136-426.688 207.232-426.688 447.488 0 247.424 200.576 448 448 448zM790.88 337.056l102.4-240.64h-54.944l-21.856 53.6h-101.024l-21.856-53.6h-53.6l102.4 240.64h48.48zM269.792 341.312h-189.504c51.744-111.264 152.48-195.104 274.464-223.84-38.912 48.928-68.704 128.16-84.96 223.84zM765.952 273.92l-31.744-77.472h63.488l-31.744 77.472zM263.584 640.032l-200.288-0.032c-13.376-40.224-20.608-83.264-20.608-128s7.264-87.776 20.64-128.032h200.256c-3.968 32.48-6.432 66.496-7.264 101.536l-0.32 26.496 0.096 13.632c0.48 39.584 3.040 77.952 7.488 114.368zM354.752 906.56l-7.392-1.824c-118.688-30.336-216.448-113.056-267.136-222.080l189.536-0.032c16.256 95.744 46.048 175.008 84.992 223.936zM448 917.344l-4.704-0.224c-54.432-5.184-105.728-99.424-129.984-234.464h269.408c-24.96 138.912-78.528 234.688-134.688 234.688zM541.28 906.56l1.216-1.6c38.336-49.056 67.68-127.616 83.744-222.304h189.536c-51.712 111.264-152.48 195.136-274.496 223.872z" />
<glyph unicode="&#xe943;" glyph-name="log-out-b" d="M640 160c0-19.2-12.8-32-32-32h-352c-19.2 0-32 12.8-32 32v544c0 19.2 12.8 32 32 32h352c19.2 0 32-12.8 32-32v-188.8h32v188.8c0 35.2-28.8 64-64 64h-352c-35.2 0-64-28.8-64-64v-544c0-35.2 28.8-64 64-64h352c35.2 0 64 28.8 64 64v176h-32v-176zM780.8 512c-6.4 6.4-16 6.4-22.4 3.2-6.4-6.4-6.4-16-3.2-22.4l35.2-41.6h-390.4c-9.6 0-16-6.4-16-16s6.4-16 16-16h393.6l-38.4-51.2c-6.4-6.4-3.2-16 3.2-22.4 3.2-3.2 6.4-3.2 9.6-3.2 6.4 0 9.6 3.2 12.8 6.4l67.2 86.4-67.2 76.8z" />
<glyph unicode="&#xe944;" glyph-name="maintenance-guide" d="M609.728 368c-1.728 0-3.456-1.728-4.32-3.456l-3.456-25.088c-1.728-9.504-13.824-14.688-21.632-8.64l-19.904 14.688c-1.728 1.728-4.32 0.864-5.184 0l-20.768-20.768c-0.864-0.864-1.728-3.456 0-5.184l14.688-19.904c6.048-7.776 0.864-19.904-8.64-21.632l-25.088-3.456c-1.728-0.864-3.456-1.728-3.456-4.32v-28.544c0-1.728 1.728-3.456 3.456-4.32l25.088-3.456c9.504-1.728 14.688-13.824 8.64-21.632l-14.688-19.904c-1.728-1.728-0.864-4.32 0-5.184l20.768-20.768c0.864-0.864 3.456-1.728 5.184 0l19.904 14.688c7.776 6.048 19.904 0.864 21.632-8.64l3.456-25.088c0.864-1.728 1.728-3.456 4.32-3.456h28.544c1.728 0 3.456 1.728 4.32 3.456l3.456 25.088c1.728 9.504 13.824 14.688 21.632 8.64l19.904-14.688c1.728-1.728 4.32-0.864 5.184 0l20.768 20.768c0.864 0.864 1.728 3.456 0 5.184l-14.688 19.904c-6.048 7.776-0.864 19.904 8.64 21.632l25.088 3.456c1.728 0.864 3.456 2.592 3.456 4.32v28.544c0 2.592-1.728 3.456-3.456 4.32l-25.088 3.456c-9.504 1.728-14.688 13.824-8.64 21.632l14.688 19.904c1.728 1.728 0.864 4.32 0 5.184l-20.768 20.768c-0.864 0.864-3.456 1.728-5.184 0l-19.904-14.688c-7.776-6.048-19.904-0.864-21.632 8.64l-3.456 25.088c-0.864 1.728-2.592 3.456-4.32 3.456h-28.544zM623.552 304c27.296 0 48.448-21.152 48.448-48.448 0-26.432-22.016-47.552-48.448-47.552s-47.552 21.152-47.552 47.552c0 27.296 21.152 48.448 47.552 48.448zM288 800c-35.36 0-64-28.64-64-64v-576c0-35.36 28.64-64 64-64h448c35.36 0 64 28.64 64 64v576c0 35.36-28.64 64-64 64h-448zM288 832h448c53.024 0 96-42.976 96-96v-576c0-53.024-42.976-96-96-96h-448c-53.024 0-96 42.976-96 96v576c0 53.024 42.976 96 96 96zM352 576v-32h320v32h-320zM352 672v-32h320v32h-320zM352 480v-32h320v32h-320zM352 384v-32h128v32h-128z" />
<glyph unicode="&#xe945;" glyph-name="new-strap" d="M512 196.8v32c177.632 0 320 60.8 320 127.456v187.744h32v-187.744c0-91.776-158.496-159.456-352-159.456zM544 284.288c-8.832 0-16 7.168-16 16s7.168 16 16 16c44.704 0 60.736 1.184 107.744 7.296 8.768 1.152 16.8-5.024 17.92-13.792s-5.024-16.8-13.792-17.92c-48.32-6.304-65.696-7.552-111.872-7.552zM512 384v32c177.632 0 320 61.024 320 128h32c0-92.064-158.496-160-352-160zM512 704v-32c177.824 0 320-67.712 320-144h32c0 100.448-158.688 176-352 176zM512 525.856v-32c99.264 0 190.976-21.12 251.776-56.384l16.064 27.68c-66.080 38.336-163.264 60.704-267.84 60.704zM544 196.864v32c-177.632 0-320 61.024-320 128v187.136h-32v-187.136c0-92.064 158.496-160 352-160zM496 304c0-17.664-14.336-32-32-32s-32 14.336-32 32c0 17.664 14.336 32 32 32s32-14.336 32-32zM416 320c0-17.664-14.336-32-32-32s-32 14.336-32 32c0 17.664 14.336 32 32 32s32-14.336 32-32zM544 384v32c-177.632 0-320 61.024-320 128h-32c0-92.064 158.496-160 352-160zM544 704v-32c-177.824 0-320-67.712-320-144h-32c0 100.448 158.688 176 352 176zM522.464 525.888v-32c-98.592 0-189.728-20.832-250.56-55.68l-15.904 27.776c66.080 37.856 162.656 59.904 266.464 59.904zM544 416h32v-208h-32v208z" />
<glyph unicode="&#xe946;" glyph-name="phone" d="M337.792 800c-27.488 0-49.792-28.64-49.792-64v-576c0-35.36 22.272-64 49.792-64h348.448c27.488 0 49.792 28.64 49.792 64v576c0 35.36-22.272 64-49.792 64h-348.448zM332.8 832h358.4c42.4 0 76.8-42.976 76.8-96v-576c0-53.024-34.4-96-76.8-96h-358.4c-42.4 0-76.8 42.976-76.8 96v576c0 53.024 34.4 96 76.8 96zM544 160c0-17.664-14.336-32-32-32s-32 14.336-32 32c0 17.664 14.336 32 32 32s32-14.336 32-32zM432 768h160c8.832 0 16-7.168 16-16s-7.168-16-16-16h-160c-8.832 0-16 7.168-16 16s7.168 16 16 16z" />
<glyph unicode="&#xe947;" glyph-name="plus" d="M490.656 789.344h42.656v-682.656h-42.656v682.656zM853.344 469.344v-42.656h-682.656v42.656h682.656z" />
<glyph unicode="&#xe948;" glyph-name="product-identification" d="M224 720c-44.192 0-80-35.808-80-80v-384c0-44.192 35.808-80 80-80h576c44.192 0 80 35.808 80 80v384c0 44.192-35.808 80-80 80h-576zM224 752h576c61.856 0 112-50.144 112-112v-384c0-61.856-50.144-112-112-112h-576c-61.856 0-112 50.144-112 112v384c0 61.856 50.144 112 112 112zM263.264 512v32h497.472v-32zM264 416v32h272v-32zM264 320v32h376v-32z" />
<glyph unicode="&#xe949;" glyph-name="qr-code" d="M102.4 857.6v-238.912h238.912v238.912h-238.912zM273.088 686.912h-102.4v102.4h102.4v-102.4zM102.4 277.376v-238.976h238.912v238.976h-238.912zM273.088 106.624h-102.4v102.4h102.4v-102.4zM682.688 857.6v-238.912h238.912v238.912h-238.912zM853.312 686.912h-102.4v102.4h102.4v-102.4zM853.344 550.4v-204.8h-170.656v-68.224h238.944v273.024zM682.656 209.024v-170.624h68.256v102.4h102.4v-102.4h68.256v170.624zM409.6 857.6v-68.256h136.544v-170.656h68.256v238.944zM546.144 550.4v-136.576h-136.544v-204.8h136.544v-170.624h68.256v238.976h-136.544v68.224h136.544v136.544h68.256v-68.32h68.256v136.576zM409.6 38.4h68.256v102.4h-68.256zM238.944 345.6h102.4v68.224h-102.4zM409.6 721.056v-170.656h-307.2v-204.8h68.256v136.544h307.2v238.944z" />
<glyph unicode="&#xe94a;" glyph-name="repair-status" d="M512 0c17.664 0 32 14.336 32 32s-14.336 32-32 32c-17.664 0-32-14.336-32-32s14.336-32 32-32zM512-32c-35.36 0-64 28.64-64 64s28.64 64 64 64c35.36 0 64-28.64 64-64s-28.64-64-64-64zM576 448c0-35.36-28.64-64-64-64s-64 28.64-64 64c0 35.36 28.64 64 64 64s64-28.64 64-64zM576 864c0-35.36-28.64-64-64-64s-64 28.64-64 64c0 35.36 28.64 64 64 64s64-28.64 64-64zM496 224h32v-32h-32v32zM496 160h32v-32h-32v32zM496 288h32v-32h-32v32zM496 352h32v-32h-32v32zM496 768h32v-224h-32v224z" />
<glyph unicode="&#xe94b;" glyph-name="replace-strap" d="M512 100.8v32c177.632 0 320 60.8 320 127.456v187.744h32v-187.744c0-91.776-158.496-159.456-352-159.456zM544 188.288c-8.832 0-16 7.168-16 16s7.168 16 16 16c44.704 0 60.736 1.184 107.744 7.296 8.768 1.152 16.8-5.024 17.92-13.792s-5.024-16.8-13.792-17.92c-48.32-6.304-65.696-7.552-111.872-7.552zM512 288v32c177.632 0 320 61.024 320 128h32c0-92.064-158.496-160-352-160zM749.28 562.944c70.368-31.712 114.72-77.856 114.72-130.944h-32c0 38.976-37.088 75.712-97.088 102.304 5.408 9.184 10.208 18.72 14.4 28.64zM321.088 534.304c-60-26.624-97.088-63.328-97.088-102.304h-32c0 53.088 44.352 99.232 114.72 130.944 4.16-9.888 8.992-19.456 14.4-28.64zM512 429.856v-32c99.264 0 190.976-21.12 251.776-56.384l16.064 27.68c-66.080 38.336-163.264 60.704-267.84 60.704zM544 100.864v32c-177.632 0-320 61.024-320 128v187.136h-32v-187.136c0-92.064 158.496-160 352-160zM496 208c0-17.664-14.336-32-32-32s-32 14.336-32 32c0 17.664 14.336 32 32 32s32-14.336 32-32zM416 224c0-17.664-14.336-32-32-32s-32 14.336-32 32c0 17.664 14.336 32 32 32s32-14.336 32-32zM544 288v32c-177.632 0-320 61.024-320 128h-32c0-92.064 158.496-160 352-160zM522.464 429.888v-32c-98.592 0-189.728-20.832-250.56-55.68l-15.904 27.776c66.080 37.856 162.656 59.904 266.464 59.904zM544 320h32v-208h-32v208zM500.032 764.064l34.432 26.624c-44.288 9.216-86.752-2.016-116.64-31.872-52.192-52.192-43.712-145.568 19.52-208.8 5.024-4.896 5.824-13.28 1.12-17.984s-13.024-3.84-17.92 1.088c-73.28 73.28-83.232 182.88-21.536 244.544 30.528 30.528 72.608 44.8 117.408 40.896l-27.008 22.816c-5.344 4.416-6.976 12.64-2.976 17.76 4.096 5.408 12.608 5.504 17.952 0.864l65.312-55.264c6.048-5.12 6.88-15.072 0.864-19.648l-53.536-41.536c-5.088-4.512-13.728-3.072-18.336 2.432-4.672 5.632-4.224 14.368 1.344 18.016zM618.72 786.144c-4.672 4.512-5.856 12.096-2.112 16.96 4.384 5.696 13.6 5.216 18.912-0.064 73.248-73.248 83.168-182.816 21.504-244.512-30.528-30.528-72.608-44.768-117.376-40.928l26.944-22.784c5.248-4.448 6.816-12.64 2.784-17.76-4.128-5.248-12.448-5.376-17.824-0.832l-65.312 55.264c-5.28 4.48-6.784 12.736-2.72 17.76 0.864 0.992 0.864 0.992 1.856 1.856l53.536 41.536c5.088 4.512 13.728 3.072 18.336-2.432 4.672-5.6 4.224-14.368-1.344-18.016l-34.528-26.72c44.32-9.28 86.88 1.984 116.8 31.872 52.192 52.192 43.744 145.568-19.456 208.736z" />
<glyph unicode="&#xe94c;" glyph-name="request-service" d="M560 672c-132.544 0-240-107.456-240-240h-32c0 150.208 121.792 272 272 272zM672 704h32v-288h-32v288zM832 544v32h-288v-32h288zM519.104 322.176c35.872 10.752 60.448 40.608 58.432 69.664-2.368 34.304-36.928 48.544-82.624 35.040l-192.32-41.216c-18.080-4.864-34.336-14.944-46.752-28.928l-139.84-157.888c-4.864-5.504-5.376-13.568-1.216-19.648l102.016-149.248c5.92-8.672 18.432-9.376 25.312-1.44l78.656 90.912 243.040 8.832c48.192 1.76 95.232 15.136 137.12 39.008l148.192 84.672c25.888 20 37.536 51.264 27.52 75.744-11.456 27.936-44.32 35.552-85.44 19.52l-150.976-67.872c-12.768-5.728-26.528-8.96-40.416-9.504l-114.368-3.808c-14.88-0.576-29.568 3.52-40.416 10.528l-16.224 13.92 90.368 31.744zM148.224 186.944l131.584 148.544c8.256 9.312 19.072 16.032 30.304 19.072l192.672 41.312c29.728 8.736 42.176 3.616 42.848-6.24 0.896-12.928-13.216-30.080-36.416-37.056l-117.216-41.152c-11.616-4.096-14.464-19.2-5.12-27.232l38.848-33.184c18.016-11.904 39.296-17.856 60.8-17.024l114.368 3.808c18.080 0.704 35.872 4.864 52.384 12.288l150.208 67.552c25.92 10.080 39.776 6.88 43.488-2.144 4.032-9.856-2.144-26.432-15.616-37.024l-146.336-83.424c-37.408-21.312-79.424-33.28-122.432-34.848l-249.984-9.088c-4.448-0.16-8.608-2.176-11.52-5.536l-69.632-80.48-83.232 121.792z" />
<glyph unicode="&#xe94d;" glyph-name="retry" d="M800.768 799.328h32v-157.856h-160.704v32h128.704zM901.856 450.176c2.368-112.64-45.824-225.184-144.032-304.736-164.8-133.472-406.624-108.064-540.096 56.768s-108.064 406.624 56.768 540.096c164.8 133.472 406.624 108.064 540.096-56.768l-24.864-20.128c-122.336 151.072-344 174.368-495.072 52.032s-174.368-344-52.032-495.072c122.336-151.072 344-174.368 495.072-52.032 87.584 70.912 134.432 172.608 132.192 279.2l32 0.672z" />
<glyph unicode="&#xe94e;" glyph-name="s-check" d="M512 149.344c164.96 0 298.656 133.728 298.656 298.656s-133.728 298.656-298.656 298.656c-164.96 0-298.656-133.728-298.656-298.656s133.728-298.656 298.656-298.656zM512 106.656c-188.512 0-341.344 152.832-341.344 341.344s152.832 341.344 341.344 341.344c188.512 0 341.344-152.832 341.344-341.344s-152.832-341.344-341.344-341.344zM681.824 535.616c7.392-7.392 8.224-18.912 2.464-27.2l-2.464-2.944-191.552-192.032c-2.784-2.784-6.144-4.64-9.664-5.568l-3.584-0.608h-3.648c-3.616 0.32-7.2 1.536-10.304 3.712l-2.944 2.464-104 95.808c-8.32 8.32-8.32 21.824 0 30.176 7.392 7.392 18.912 8.224 27.2 2.464l2.944-2.464 88.896-80.736 176.448 176.96c8.32 8.32 21.824 8.32 30.176 0z" />
<glyph unicode="&#xe94f;" glyph-name="s-collection-available" d="M789.344 405.344c106.048 0 192-85.952 192-192s-85.952-192-192-192c-106.048 0-192 85.952-192 192s85.952 192 192 192zM789.344 362.656c-82.464 0-149.344-66.848-149.344-149.344s66.848-149.344 149.344-149.344c82.464 0 149.344 66.848 149.344 149.344s-66.848 149.344-149.344 149.344zM701.056 768l110.272-134.272c11.68-14.24 18.752-31.616 20.32-49.856l0.352-7.84c0-60.096-58.208-106.656-128-106.656-44.096 0-83.552 18.592-106.656 47.456-23.072-28.832-62.592-47.456-106.688-47.456s-83.552 18.592-106.656 47.424c-23.136-28.832-62.592-47.424-106.688-47.424-14.912 0-29.28 2.112-42.688 6.048l0.032-326.176c0-10.464 7.552-19.168 17.504-20.992l3.84-0.352h106.656v192.096c0 33.28 25.376 60.608 57.824 63.712l6.176 0.288h156.384c-10.912-13.024-20.64-27.296-29.056-42.656h-127.36c-10.464 0-19.168-7.552-20.992-17.504l-0.352-3.84v-192.096l118.784-0.064c3.104-15.104 7.328-29.344 12.576-42.656l-280.672 0.064c-33.28 0-60.608 25.376-63.712 57.824l-0.288 6.176v346.496h0.896c-24.768 18.048-41.184 44-43.296 73.664l-0.224 6.624c0 18.272 5.344 36.096 15.264 51.328l4.544 6.368 104.448 134.304h427.488zM789.344 320.608c10.464 0 19.168-7.552 20.992-17.504l0.352-3.84v-65.856h66.528c10.464 0 19.168-7.552 20.992-17.504l0.352-3.84c0-10.464-7.552-19.168-17.504-20.992l-3.84-0.352h-109.216v108.512c0 11.776 9.536 21.344 21.344 21.344zM680.864 725.344h-386.464l-91.584-117.824c-5.824-7.52-9.44-16.448-10.496-25.824l-0.32-5.664c0-34.176 37.28-64 85.344-64 45.632 0 81.568 26.912 85.056 58.912l0.288 5.088c0 11.776 9.536 21.344 21.344 21.344s21.344-9.536 21.344-21.344c0-34.176 37.28-64 85.344-64s85.344 29.824 85.344 64c0 11.776 9.536 21.344 21.344 21.344 10.464 0 19.168-7.552 20.992-17.504l0.352-3.84c0-34.176 37.28-64 85.344-64 45.632 0 81.568 26.912 85.056 58.912l0.288 5.088c0 9.312-2.688 18.4-7.68 26.144l-3.264 4.48-97.504 118.688z" />
<glyph unicode="&#xe950;" glyph-name="s-diagnosis-estimate-approval" d="M789.344 405.344c106.048 0 192-85.952 192-192s-85.952-192-192-192c-106.048 0-192 85.952-192 192s85.952 192 192 192zM810.656 853.344c33.28 0 60.608-25.376 63.712-57.824l0.288-6.176 0.032-289.728c-13.824 4.128-28.064 7.264-42.656 9.344l-0.032 280.352c0 10.464-7.552 19.168-17.504 20.992l-3.84 0.352h-597.344c-10.464 0-19.168-7.552-20.992-17.504l-0.352-3.84v-682.656c0-10.464 7.552-19.168 17.504-20.992l3.84-0.352 306.080-0.032c7.104-14.944 15.424-29.216 24.832-42.688l-330.912 0.064c-33.28 0-60.608 25.376-63.712 57.824l-0.288 6.176v682.656c0 33.28 25.376 60.608 57.824 63.712l6.176 0.288h597.344zM789.344 362.656c-82.464 0-149.344-66.848-149.344-149.344s66.848-149.344 149.344-149.344c82.464 0 149.344 66.848 149.344 149.344s-66.848 149.344-149.344 149.344zM789.344 320.608c10.464 0 19.168-7.552 20.992-17.504l0.352-3.84v-65.856h66.528c10.464 0 19.168-7.552 20.992-17.504l0.352-3.84c0-10.464-7.552-19.168-17.504-20.992l-3.84-0.352h-109.216v108.512c0 11.776 9.536 21.344 21.344 21.344zM438.528 423.584c29.44 0 53.344-23.872 53.344-53.344v0-66.848c0-29.44-23.872-53.344-53.344-53.344v0h-66.848c-29.44 0-53.344 23.872-53.344 53.344v0 66.848c0 29.44 23.872 53.344 53.344 53.344v0zM438.528 380.928h-66.848c-5.888 0-10.656-4.768-10.656-10.656v0-66.848c0-5.888 4.768-10.656 10.656-10.656v0h66.848c5.888 0 10.656 4.768 10.656 10.656v0 66.848c0 5.888-4.768 10.656-10.656 10.656v0zM482.656 642.336c7.424-7.392 8.288-18.88 2.56-27.2l-2.464-2.976-99.424-99.968-56.544 52.704c-8.608 8.032-9.088 21.536-1.056 30.144 4.448 4.8 10.624 7.072 16.672 6.752l3.616-0.48c2.368-0.544 4.704-1.472 6.816-2.848l3.040-2.368 26.304-24.512 70.336 70.688c3.68 3.712 8.416 5.792 13.248 6.208h3.648c4.832-0.384 9.568-2.432 13.28-6.144zM660.224 597.088c11.776 0 21.344-9.536 21.344-21.344 0-10.464-7.552-19.168-17.504-20.992l-3.84-0.352h-95.936c-11.776 0-21.344 9.536-21.344 21.344 0 10.464 7.552 19.168 17.504 20.992l3.84 0.352h95.936z" />
<glyph unicode="&#xe951;" glyph-name="s-diagnosis-estimate" d="M761.92 384c102.688 0 185.92-83.232 185.92-185.92 0-43.52-14.944-83.52-40-115.2l66.72-67.2c8.32-8.352 8.256-21.856-0.096-30.176-7.424-7.392-18.912-8.16-27.232-2.4l-2.944 2.464-66.624 67.008c-31.776-25.312-72-40.448-115.776-40.448-102.688 0-185.92 83.232-185.92 185.92s83.232 185.92 185.92 185.92zM810.656 853.344c33.28 0 60.608-25.376 63.712-57.824l0.288-6.176 0.032-344.48c-13.664 6.24-27.904 11.392-42.688 15.328l-0.032 329.152c0 10.464-7.552 19.168-17.504 20.992l-3.84 0.352h-597.344c-10.464 0-19.168-7.552-20.992-17.504l-0.352-3.84v-682.656c0-10.464 7.552-19.168 17.504-20.992l3.84-0.352 301.824-0.032c6.88-15.008 15.072-29.28 24.448-42.688l-326.272 0.032c-33.28 0-60.608 25.376-63.712 57.824l-0.288 6.176v682.656c0 33.28 25.376 60.608 57.824 63.712l6.176 0.288h597.344zM761.92 341.344c-79.104 0-143.232-64.128-143.232-143.232s64.128-143.232 143.232-143.232c79.104 0 143.232 64.128 143.232 143.232s-64.128 143.232-143.232 143.232zM438.528 423.584c29.44 0 53.344-23.872 53.344-53.344v0-66.848c0-29.44-23.872-53.344-53.344-53.344v0h-66.848c-29.44 0-53.344 23.872-53.344 53.344v0 66.848c0 29.44 23.872 53.344 53.344 53.344v0zM438.528 380.928h-66.848c-5.888 0-10.656-4.768-10.656-10.656v0-66.848c0-5.888 4.768-10.656 10.656-10.656v0h66.848c5.888 0 10.656 4.768 10.656 10.656v0 66.848c0 5.888-4.768 10.656-10.656 10.656v0zM438.528 662.528c29.44 0 53.344-23.872 53.344-53.344v0-66.848c0-29.44-23.872-53.344-53.344-53.344v0h-66.848c-29.44 0-53.344 23.872-53.344 53.344v0 66.848c0 29.44 23.872 53.344 53.344 53.344v0zM438.528 619.84h-66.848c-5.888 0-10.656-4.768-10.656-10.656v0-66.848c0-5.888 4.768-10.656 10.656-10.656v0h66.848c5.888 0 10.656 4.768 10.656 10.656v0 66.848c0 5.888-4.768 10.656-10.656 10.656v0zM660.224 597.088c11.776 0 21.344-9.536 21.344-21.344 0-10.464-7.552-19.168-17.504-20.992l-3.84-0.352h-95.936c-11.776 0-21.344 9.536-21.344 21.344 0 10.464 7.552 19.168 17.504 20.992l3.84 0.352h95.936z" />
<glyph unicode="&#xe952;" glyph-name="s-fail" d="M512 789.344c188.512 0 341.344-152.832 341.344-341.344s-152.832-341.344-341.344-341.344c-188.512 0-341.344 152.832-341.344 341.344s152.832 341.344 341.344 341.344zM512 755.2c-169.664 0-307.2-137.536-307.2-307.2s137.536-307.2 307.2-307.2c169.664 0 307.2 137.536 307.2 307.2s-137.536 307.2-307.2 307.2zM649.216 585.696c7.392-7.392 8.224-18.912 2.464-27.2l-2.464-2.944-107.040-107.52 109.504-109.472c8.32-8.32 8.32-21.824 0-30.176-7.392-7.392-18.912-8.224-27.2-2.464l-2.944 2.464-109.504 109.472-107.808-109.472c-8.32-8.32-21.824-8.32-30.176 0-7.392 7.392-8.224 18.912-2.464 27.2l2.464 2.944 107.808 109.472-104.864 104.064c-8.32 8.32-8.32 21.824 0 30.176 6.496 6.496 16.096 7.936 23.968 4.32l3.264-1.856 2.944-2.464 104.864-104.096 107.040 107.552c8.32 8.32 21.824 8.32 30.176 0z" />
<glyph unicode="&#xe953;" glyph-name="s-payment" d="M789.344 405.344c106.048 0 192-85.952 192-192s-85.952-192-192-192c-106.048 0-192 85.952-192 192s85.952 192 192 192zM789.344 362.656c-82.464 0-149.344-66.848-149.344-149.344s66.848-149.344 149.344-149.344c82.464 0 149.344 66.848 149.344 149.344s-66.848 149.344-149.344 149.344zM825.472 291.072l2.528-2.912 44.768-62.4c4.512-6.304 5.216-14.464 2.048-21.344l-1.888-3.328-44.736-64c-6.752-9.664-20.064-12-29.696-5.28-8.576 6.016-11.392 17.184-7.168 26.368l1.92 3.328 21.184 30.432h-89.056c-11.776 0-21.344 9.536-21.344 21.344 0 10.464 7.552 19.168 17.504 20.992l3.84 0.352h88.48l-20.512 28.64c-6.112 8.512-5.056 20 1.984 27.264l2.912 2.528c8.512 6.112 20 5.056 27.264-1.984zM810.656 768c33.28 0 60.608-25.376 63.712-57.824l0.288-6.176 0.032-226.72c-13.76 4.448-28.032 7.84-42.656 10.112l-0.032 24.64h-640v-234.72c0-10.464 7.552-19.168 17.504-20.992l3.84-0.352h301.92c-2.144-13.92-3.264-28.16-3.264-42.656h-298.656c-33.28 0-60.608 25.376-63.712 57.824l-0.288 6.176v426.656c0 33.28 25.376 60.608 57.824 63.712l6.176 0.288h597.344zM320 341.344v-42.656h-64v42.656h64zM832 597.344h-640v-42.624h640v42.624zM810.656 725.344h-597.344c-10.464 0-19.168-7.552-20.992-17.504l-0.352-3.84v-64h640v64c0 10.464-7.552 19.168-17.504 20.992l-3.84 0.352z" />
<glyph unicode="&#xe954;" glyph-name="s-service-closure" d="M518.528 472.512c39.392 3.264 69.152-6.912 86.176-32.16v0l2.848-6.144c10.272-36.416-8.96-73.28-43.84-88.544-27.36-12.16-63.168-25.696-107.488-40.704v0l-14.496-4.832 2.496-2.208c16.544-13.856 32.32-21.28 47.296-22.784v0l5.568-0.288h23.328c32.128 0.064 47.072 0.448 75.872 2.88v0l38.4 3.552c18.368 3.072 35.968 8.48 58.304 17.312v0l31.744 12.736 47.552 20.96 86.816 40.704 4.32 1.504c46.912 10.848 76.32 7.488 93.216-29.568 11.136-36.64-6.784-82.976-38.016-103.2-41.408-23.744-60.864-34.912-74.016-42.4v0l-103.264-57.76-45.824-19.104c-9.568-3.872-17.152-6.72-24.768-9.184-28.608-9.344-56.384-12.992-101.824-12.992v0l-256.288 0.032-89.344-101.856c-8.128-9.28-22.112-9.568-30.688-1.44v0l-2.624 3.008-121.92 168.704c-5.76 7.968-5.312 18.816 1.024 26.304 5.088 5.984 13.472 15.552 25.12 28.768v0l128.864 143.776c33.696 39.264 46.656 47.776 89.504 60 14.624 3.616 40.032 9.376 76.64 17.312v0zM532 430.72l-7.296-0.32c-73.024-15.392-127.616-27.168-163.36-35.168v0l-37.76-8.736c-33.888-9.664-39.744-13.504-68.448-46.944-29.28-32.512-54.56-60.576-75.776-84.256v0l-66.848-75.040 96.352-133.376 78.080 88.96c3.232 3.68 7.616 6.112 12.384 6.944v0l3.648 0.32h265.92c41.28 0 64.672 3.072 88.576 10.88v0l5.024 1.696c6.816 2.4 14.272 5.312 24.224 9.44v0l36.16 14.944 76.032 42.496 97.504 55.68c14.528 9.44 24.928 36.256 20.448 51.648-3.328 7.168-11.936 9.216-31.808 5.664v0l-9.888-2.016-77.792-36.608-56.48-24.96-44.32-17.568c-19.616-7.232-36.896-12.096-56.288-15.264-53.088-5.184-70.080-6.432-103.168-6.752v0l-39.968-0.096c-38.464 0-75.36 21.952-110.816 63.808-9.824 11.616-4.704 29.504 9.792 34.112 65.312 20.832 115.456 39.008 150.368 54.528 16.128 7.072 24.288 22.72 20 37.92l0.672-3.424-0.48 0.608c-6.88 7.264-18.336 11.072-34.688 10.912v0zM533.344 810.656v-42.656c-138.176 0-250.784-109.472-255.808-246.4l-0.192-9.6h-42.656c0 161.504 128.192 293.088 288.384 298.496l10.272 0.16zM812.032 768.032l30.176-30.176-89.152-89.152 89.152-89.12-30.176-30.176-89.12 89.152-89.152-89.152-30.176 30.176 89.152 89.12-89.152 89.152 30.176 30.176 89.152-89.152 89.12 89.152z" />
<glyph unicode="&#xe955;" glyph-name="s-service-delay" d="M518.528 472.512c39.392 3.264 69.152-6.912 86.176-32.16v0l2.848-6.144c10.272-36.416-8.96-73.28-43.84-88.544-27.36-12.16-63.168-25.696-107.488-40.704v0l-14.496-4.832 2.496-2.208c16.544-13.856 32.32-21.28 47.296-22.784v0l5.568-0.288h23.328c32.128 0.064 47.072 0.448 75.872 2.88v0l38.4 3.552c18.368 3.072 35.968 8.48 58.304 17.312v0l31.744 12.736 47.552 20.96 86.816 40.704 4.32 1.504c46.912 10.848 76.32 7.488 93.216-29.568 11.136-36.64-6.784-82.976-38.016-103.2-41.408-23.744-60.864-34.912-74.016-42.4v0l-103.264-57.76-45.824-19.104c-9.568-3.872-17.152-6.72-24.768-9.184-28.608-9.344-56.384-12.992-101.824-12.992v0l-256.288 0.032-89.344-101.856c-8.128-9.28-22.112-9.568-30.688-1.44v0l-2.624 3.008-121.92 168.704c-5.76 7.968-5.312 18.816 1.024 26.304 5.088 5.984 13.472 15.552 25.12 28.768v0l128.864 143.776c33.696 39.264 46.656 47.776 89.504 60 14.624 3.616 40.032 9.376 76.64 17.312v0zM532 430.72l-7.296-0.32c-73.024-15.392-127.616-27.168-163.36-35.168v0l-37.76-8.736c-33.888-9.664-39.744-13.504-68.448-46.944-29.28-32.512-54.56-60.576-75.776-84.256v0l-66.848-75.040 96.352-133.376 78.080 88.96c3.232 3.68 7.616 6.112 12.384 6.944v0l3.648 0.32h265.92c41.28 0 64.672 3.072 88.576 10.88v0l5.024 1.696c6.816 2.4 14.272 5.312 24.224 9.44v0l36.16 14.944 76.032 42.496 97.504 55.68c14.528 9.44 24.928 36.256 20.448 51.648-3.328 7.168-11.936 9.216-31.808 5.664v0l-9.888-2.016-77.792-36.608-56.48-24.96-44.32-17.568c-19.616-7.232-36.896-12.096-56.288-15.264-53.088-5.184-70.080-6.432-103.168-6.752v0l-39.968-0.096c-38.464 0-75.36 21.952-110.816 63.808-9.824 11.616-4.704 29.504 9.792 34.112 65.312 20.832 115.456 39.008 150.368 54.528 16.128 7.072 24.288 22.72 20 37.92l0.672-3.424-0.48 0.608c-6.88 7.264-18.336 11.072-34.688 10.912v0zM746.656 803.2c94.272 0 170.656-76.416 170.656-170.656s-76.416-170.656-170.656-170.656c-94.272 0-170.656 76.416-170.656 170.656s76.416 170.656 170.656 170.656zM746.656 769.056c-75.392 0-136.544-61.12-136.544-136.544s61.12-136.544 136.544-136.544c75.392 0 136.544 61.12 136.544 136.544s-61.12 136.544-136.544 136.544zM533.344 810.656v-42.656c-138.176 0-250.784-109.472-255.808-246.4l-0.192-9.6h-42.656c0 161.504 128.192 293.088 288.384 298.496l10.272 0.16zM746.656 721.056c8.256 0 15.136-5.856 16.736-13.632l0.352-3.424v-70.112l70.816-0.032c8.256 0 15.136-5.856 16.736-13.632l0.352-3.424c0-8.256-5.856-15.136-13.632-16.704l-3.456-0.352h-104.928v104.256c0 9.44 7.648 17.056 17.056 17.056z" />
<glyph unicode="&#xe956;" glyph-name="s-service-ongoing" d="M518.528 472.512c39.392 3.264 69.152-6.912 86.176-32.16v0l2.848-6.144c10.272-36.416-8.96-73.28-43.84-88.544-27.36-12.16-63.168-25.696-107.488-40.704v0l-14.496-4.832 2.496-2.208c16.544-13.856 32.32-21.28 47.296-22.784v0l5.568-0.288h23.328c32.128 0.064 47.072 0.448 75.872 2.88v0l38.4 3.552c18.368 3.072 35.968 8.48 58.304 17.312v0l31.744 12.736 47.552 20.96 86.816 40.704 4.32 1.504c46.912 10.848 76.32 7.488 93.216-29.568 11.136-36.64-6.784-82.976-38.016-103.2-41.408-23.744-60.864-34.912-74.016-42.4v0l-103.264-57.76-45.824-19.104c-9.568-3.872-17.152-6.72-24.768-9.184-28.608-9.344-56.384-12.992-101.824-12.992v0l-256.288 0.032-89.344-101.856c-8.128-9.28-22.112-9.568-30.688-1.44v0l-2.624 3.008-121.92 168.704c-5.76 7.968-5.312 18.816 1.024 26.304 5.088 5.984 13.472 15.552 25.12 28.768v0l128.864 143.776c33.696 39.264 46.656 47.776 89.504 60 14.624 3.616 40.032 9.376 76.64 17.312v0zM532 430.72l-7.296-0.32c-73.024-15.392-127.616-27.168-163.36-35.168v0l-37.76-8.736c-33.888-9.664-39.744-13.504-68.448-46.944-29.28-32.512-54.56-60.576-75.776-84.256v0l-66.848-75.040 96.352-133.376 78.080 88.96c3.232 3.68 7.616 6.112 12.384 6.944v0l3.648 0.32h265.92c41.28 0 64.672 3.072 88.576 10.88v0l5.024 1.696c6.816 2.4 14.272 5.312 24.224 9.44v0l36.16 14.944 76.032 42.496 97.504 55.68c14.528 9.44 24.928 36.256 20.448 51.648-3.328 7.168-11.936 9.216-31.808 5.664v0l-9.888-2.016-77.792-36.608-56.48-24.96-44.32-17.568c-19.616-7.232-36.896-12.096-56.288-15.264-53.088-5.184-70.080-6.432-103.168-6.752v0l-39.968-0.096c-38.464 0-75.36 21.952-110.816 63.808-9.824 11.616-4.704 29.504 9.792 34.112 65.312 20.832 115.456 39.008 150.368 54.528 16.128 7.072 24.288 22.72 20 37.92l0.672-3.424-0.48 0.608c-6.88 7.264-18.336 11.072-34.688 10.912v0zM533.44 810.656l6.688-0.064-0.96-42.656c-0.96 0.032-1.6 0.032-2.144 0.032v0l-13.792-0.16c-1.856-0.064-3.68-0.16-5.504-0.256-1.664-0.096-3.328-0.224-5.024-0.352l5.024 0.352c-20.096-1.216-39.552-4.736-58.144-10.304-3.296-0.992-6.624-2.048-9.888-3.168l9.888 3.168c-4.736-1.408-9.376-2.976-13.984-4.64l4.128 1.472c-3.936-1.344-7.808-2.816-11.68-4.352l7.552 2.88c-3.36-1.216-6.72-2.528-10.016-3.904l-11.328-4.992-6.976-3.424c-10.4-5.312-20.416-11.296-29.92-17.92-2.976-2.048-5.888-4.16-8.736-6.336l8.736 6.336c-3.904-2.72-7.744-5.536-11.488-8.48l2.752 2.112c-3.264-2.464-6.464-5.024-9.6-7.648l6.848 5.536c-3.104-2.432-6.144-4.928-9.152-7.488l-8.992-8.096-5.408-5.248c-7.808-7.808-15.136-16.128-21.888-24.896-4.8-6.24-9.312-12.704-13.536-19.328-0.416-0.672-0.832-1.344-1.248-1.984l-5.984-10.112-0.352-0.672c-6.944-12.512-12.864-25.664-17.632-39.328-0.96-2.72-1.856-5.44-2.72-8.192l2.72 8.192c-1.536-4.416-2.976-8.896-4.288-13.408-0.832-2.816-1.6-5.632-2.304-8.48l2.304 8.48c-5.696-19.68-9.088-40.352-9.888-61.664l-0.192-9.6h-42.656c0 4.736 0.096 9.184 0.32 13.632v0c0.64 14.496 2.336 28.704 4.992 42.592 0.128 0.704 0.288 1.408 0.416 2.144 1.664 8.48 3.712 16.8 6.080 24.992 1.696 5.792 3.552 11.52 5.568 17.216l-4.416-13.344c9.152 30.016 22.912 58.016 40.416 83.168 3.136 4.512 6.432 8.96 9.824 13.312l-8.352-11.232c2.496 3.52 5.088 7.008 7.744 10.432l0.608 0.8c7.52 9.632 15.648 18.816 24.288 27.456l6.304 6.144 0.544 0.512c3.136 2.944 6.368 5.856 9.632 8.672 0.896 0.768 1.792 1.536 2.688 2.272 7.104 5.952 14.496 11.616 22.144 16.896l0.736 0.48c11.232 7.744 23.040 14.72 35.328 20.896l6.56 3.168c0.096 0.032 0.16 0.096 0.256 0.128 3.936 1.856 7.904 3.616 11.904 5.28 1.312 0.544 2.656 1.088 3.968 1.632 8.224 3.296 16.64 6.24 25.216 8.832l1.632 0.48c14.176 4.16 28.8 7.328 43.776 9.344l1.376 0.192c0.64 0.096 1.28 0.16 1.92 0.256 2.848 0.352 5.696 0.672 8.608 0.96 1.792 0.16 3.584 0.32 5.376 0.448 2.112 0.16 4.256 0.32 6.4 0.416 5.6 0.32 11.264 0.48 16.96 0.48l-11.36-0.192c0.32 0 0.64 0.032 0.992 0.032l10.4 0.16zM828.512 557.792c2.304-15.072 3.488-30.368 3.488-45.792v0h-42.656c0 13.248-0.992 26.368-3.008 39.296v0zM800.608 645.408c6.848-13.696 12.64-27.936 17.312-42.592v0l-40.64-12.96c-4 12.544-8.96 24.736-14.816 36.48v0zM745.76 721.952c10.784-10.912 20.704-22.624 29.696-35.040v0l-34.56-25.024c-7.712 10.656-16.224 20.704-25.472 30.080v0zM672.736 776.192c13.568-7.168 26.56-15.392 38.848-24.544v0l-25.472-34.208c-10.56 7.84-21.664 14.88-33.312 21.024v0zM582.624 806.624c15.2-2.528 30.112-6.208 44.64-11.008v0l-13.408-40.512c-12.448 4.128-25.216 7.264-38.208 9.44v0z" />
<glyph unicode="&#xe957;" glyph-name="s-shipping-pick-up" d="M234.656 405.344c106.048 0 192-85.952 192-192s-85.952-192-192-192c-106.048 0-192 85.952-192 192s85.952 192 192 192zM234.656 362.656c-82.464 0-149.344-66.848-149.344-149.344s66.848-149.344 149.344-149.344c82.464 0 149.344 66.848 149.344 149.344s-66.848 149.344-149.344 149.344zM739.52 768l121.28-152.704c8.992-11.328 13.888-25.344 13.888-39.808v-383.488c0-35.36-28.64-64-64-64l-312.064-0.032c4.448 13.792 7.872 28.032 10.112 42.656l301.92 0.032c11.776 0 21.344 9.536 21.344 21.344v362.656h-640v-67.264c-14.656-2.272-28.928-5.664-42.72-10.144l0.064 98.464c0 14.464 4.896 28.512 13.92 39.84l121.248 152.416h455.008zM270.784 291.072l2.528-2.912 44.768-62.4c4.512-6.304 5.216-14.464 2.048-21.344l-1.888-3.328-44.736-64c-6.752-9.664-20.064-12-29.696-5.28-8.576 6.016-11.392 17.184-7.168 26.368l1.92 3.328 21.184 30.432h-89.056c-11.776 0-21.344 9.536-21.344 21.344 0 10.464 7.552 19.168 17.504 20.992l3.84 0.352h88.48l-20.512 28.64c-6.112 8.512-5.056 20 1.984 27.264l2.912 2.528c8.512 6.112 20 5.056 27.264-1.984zM490.656 725.376l-185.568-0.032-101.92-128h287.488v128.032zM718.976 725.344l-185.632 0.032v-128.032h287.232l-101.6 128z" />
<glyph unicode="&#xe958;" glyph-name="s-shipping-product-comingup" d="M789.344 405.344c106.048 0 192-85.952 192-192s-85.952-192-192-192c-106.048 0-192 85.952-192 192s85.952 192 192 192zM789.344 362.656c-82.464 0-149.344-66.848-149.344-149.344s66.848-149.344 149.344-149.344c82.464 0 149.344 66.848 149.344 149.344s-66.848 149.344-149.344 149.344zM748.64 871.072c7.712 17.184 27.904 24.896 45.12 17.152v0l97.76-43.872 5.44-2.752c24.512-13.92 37.248-42.528 30.624-70.432v0l-52.896-201.056-0.064 0.032 0.064-92.896c-13.792 4.448-28.032 7.872-42.656 10.112l-0.032 67.264-640.032 0.032 0.032-362.688c0-10.464 7.552-19.168 17.504-20.992l3.84-0.352 301.92-0.032c2.272-14.624 5.664-28.864 10.112-42.656l-312.064 0.032c-33.28 0-60.608 25.376-63.712 57.824l-0.288 6.176-0.032 381.6-46.912 197.6c-6.624 27.904 6.112 56.512 30.624 70.432l5.44 2.752 97.76 43.872c17.184 7.712 37.408 0.032 45.12-17.152l1.408-3.648 31.52-99.392h401.44l31.52 99.392zM789.344 320.608c10.464 0 19.168-7.552 20.992-17.504l0.352-3.84-0.032-65.856h66.592c10.464 0 19.168-7.552 20.992-17.504l0.352-3.84c0-10.464-7.552-19.168-17.504-20.992l-3.84-0.352h-109.216v108.512c0 11.776 9.536 21.344 21.344 21.344zM277.312 690.464l-73.888-93.088h73.888v93.088zM703.968 725.376h-384v-128h384v128zM746.656 690.464v-93.088h74.080l-74.080 93.088zM785.056 845.44l-30.592-96.256 92.16-115.84 39.456 147.744 0.544 3.744c0.48 8.704-4.384 16.992-12.576 20.64v0l-88.992 40zM244.96 845.44l-88.992-40c-8.16-3.68-13.056-11.968-12.576-20.64l0.544-3.744 34.688-146.272 95.136 119.776-28.832 90.88z" />
<glyph unicode="&#xe959;" glyph-name="s-shipping-sk" d="M789.344 405.344c106.048 0 192-85.952 192-192s-85.952-192-192-192c-106.048 0-192 85.952-192 192s85.952 192 192 192zM789.344 362.656c-82.464 0-149.344-66.848-149.344-149.344s66.848-149.344 149.344-149.344c82.464 0 149.344 66.848 149.344 149.344s-66.848 149.344-149.344 149.344zM739.488 768l121.248-152.416c7.712-9.696 12.416-21.408 13.6-33.664l0.288-6.176 0.032-98.464c-13.792 4.448-28.032 7.872-42.656 10.112l-0.096 67.264h-640l0.032-362.656c0-10.464 7.552-19.168 17.504-20.992l3.84-0.352 301.92-0.032c2.272-14.624 5.664-28.864 10.112-42.656l-312.064 0.032c-33.28 0-60.608 25.376-63.712 57.824l-0.288 6.176v383.488c0 12.384 3.584 24.48 10.272 34.784l3.584 5.024 121.28 152.704h455.008zM821.344 291.072l2.528-2.912 44.768-62.4c4.512-6.304 5.216-14.464 2.048-21.344l-1.888-3.328-44.736-64c-6.752-9.664-20.064-12-29.696-5.28-8.576 6.016-11.392 17.184-7.168 26.368l1.92 3.328 21.184 30.432h-89.024c-11.776 0-21.344 9.536-21.344 21.344 0 10.464 7.552 19.168 17.504 20.992l3.84 0.352h88.48l-20.512 28.64c-6.112 8.512-5.056 20 1.984 27.264l2.912 2.528c8.512 6.112 20 5.056 27.264-1.984zM490.656 725.376l-185.632-0.032-101.632-128h287.264v128.032zM718.88 725.344l-185.568 0.032v-128.032h287.456l-101.888 128z" />
<glyph unicode="&#xe95a;" glyph-name="s-shipping-waiting" d="M789.344 405.344c106.048 0 192-85.952 192-192s-85.952-192-192-192c-106.048 0-192 85.952-192 192s85.952 192 192 192zM789.344 362.656c-82.464 0-149.344-66.848-149.344-149.344s66.848-149.344 149.344-149.344c82.464 0 149.344 66.848 149.344 149.344s-66.848 149.344-149.344 149.344zM739.488 768l121.248-152.416c7.712-9.696 12.416-21.408 13.6-33.664l0.288-6.176 0.032-98.464c-13.792 4.448-28.032 7.872-42.656 10.112l-0.032 67.264h-640v-362.656c0-10.464 7.552-19.168 17.504-20.992l3.84-0.352 301.92-0.032c2.272-14.624 5.664-28.864 10.112-42.656l-312.064 0.032c-33.28 0-60.608 25.376-63.712 57.824l-0.288 6.176v383.488c0 12.384 3.584 24.48 10.272 34.784l3.584 5.024 121.28 152.704h455.008zM789.344 320.608c10.464 0 19.168-7.552 20.992-17.504l0.352-3.84-0.032-65.856h66.592c10.464 0 19.168-7.552 20.992-17.504l0.352-3.84c0-10.464-7.552-19.168-17.504-20.992l-3.84-0.352h-109.216v108.512c0 11.776 9.536 21.344 21.344 21.344zM490.656 725.376l-185.632-0.032-101.6-128h287.232v128.032zM718.88 725.344l-185.568 0.032v-128.032h287.456l-101.888 128z" />
<glyph unicode="&#xe95b;" glyph-name="s-tracking-stopped" d="M746.656 448c106.048 0 192-85.952 192-192 0-56.192-24.128-106.752-62.624-141.856l99.040-99.040c8.32-8.32 8.32-21.824 0-30.176-7.392-7.392-18.912-8.224-27.2-2.464l-2.944 2.464-103.872 103.84c-27.872-15.776-60.064-24.768-94.4-24.768-106.048 0-192 85.952-192 192s85.952 192 192 192zM746.656 405.344c-82.464 0-149.344-66.848-149.344-149.344s66.848-149.344 149.344-149.344c82.464 0 149.344 66.848 149.344 149.344s-66.848 149.344-149.344 149.344zM739.488 768l121.248-152.416c7.712-9.696 12.416-21.408 13.6-33.664l0.288-6.176 0.032-73.664c-13.6 7.104-27.872 13.088-42.688 17.888l-0.064 34.72h-640l0.032-362.656c0-10.464 7.552-19.168 17.504-20.992l3.84-0.352 269.376-0.032c4.8-14.816 10.784-29.088 17.888-42.688l-287.264 0.032c-33.28 0-60.608 25.376-63.712 57.824l-0.288 6.176v383.488c0 12.384 3.584 24.48 10.272 34.784l3.584 5.024 121.28 152.704h455.008zM691.552 339.392l3.264-1.856 2.944-2.464 48.928-48.928 48.928 48.928c8.32 8.32 21.824 8.32 30.176 0 7.392-7.392 8.224-18.912 2.464-27.2l-2.464-2.944-48.928-48.928 48.928-48.928c8.32-8.32 8.32-21.824 0-30.176-7.392-7.392-18.912-8.224-27.2-2.464l-2.944 2.464-48.928 48.928-48.928-48.928c-8.32-8.32-21.824-8.32-30.176 0-7.392 7.392-8.224 18.912-2.464 27.2l2.464 2.944 48.928 48.928-48.928 48.928c-8.32 8.32-8.32 21.824 0 30.176 6.496 6.496 16.096 7.904 23.968 4.32zM490.656 725.344h-185.632l-101.632-128h287.264v128zM718.88 725.344h-185.568v-128h287.456l-101.888 128z" />
</font>
</defs>
</svg>
